UFC 257 Free 720p Poirier Vs McGregor Free Online DX-TV

UFC 257 Free 720p Poirier Vs McGregor Free Online DX-TV

UFC 257 Free 720p

 UFC 257 Free 720p

 

Download Links with premium High Speed   

 

 

dropapk.to

http://shrt10.com/KskOuZ
http://shrt10.com/Clx1XmoSb

 

 

nitroflare.com

http://shrt10.com/N3945C6
http://shrt10.com/1OHiVeND

 

 

rapidgator.net

http://shrt10.com/fNok0zM3
http://shrt10.com/gujpURls

 

 

uploaded.net

http://shrt10.com/trrgPfJ
http://shrt10.com/nmXGoMRzg

 

 

uploadgig.com

http://shrt10.com/1loEbYGK
http://shrt10.com/vT1Xntre

 

Watch UFC 257 Free online

 

Server 1

 

 

 

 

UFC 257 Free

 

 

 

 

Server-2

 

 

 

 

watch now

 

 

Uploaded By Site DX-TV.com

 

Complete name : UFC.257.540p.HDTV.H26 DX-TV.mkv
Format : Matroska
Format version : Version 4
File size : 2.07 GiB
Duration : 2 h 49 min
Overall bit rate : 1 750 kb/s

UFC 257 Free

Video
ID : 1
Format : AVC
Duration : 2 h 49 min
Width : 960 pixels
Height : 540 pixels
Display aspect ratio : 16:9
Frame rate mode : Constant
Frame rate : 59.940 FPS
Color space : YUV
Chroma subsampling : 4:2:0
Bit depth : 8 bits
Scan type : Progressive
Forced : No
Color range : Limited
Color primaries : BT.709
Transfer characteristics : BT.709
Matrix coefficients : BT.709

UFC 257 Free

Audio
ID : 2
Format : AAC LC
Format/Info : Advanced Audio
Codec ID : A_AAC-2
Duration : 2 h 49 min
Channel(s) : 2 channels
Channel layout : L R
Sampling rate : 48.0 kHz
Frame rate : 46.875 FPS
Compression mode : Lossy
Delay relative to video : -21 ms
Title : Stereo
Language : English
Default : Yes
Forced : No

UFC 257 Free

Complete name : ufc.257.poirier.vs.mcgregor.ppv.720p.hdtv.x264-verum.mkv
Format : Matroska
Format version : Version 4
File size : 4.26 GiB
Duration : 2 h 49 min
Overall bit rate : 3 599 kb/s

Video
ID : 1
Format : AVC
Duration : 2 h 49 min
Bit rate : 3 143 kb/s
Width : 1 280 pixels
Height : 720 pixels
Display aspect ratio : 16:9
Frame rate mode : Constant
Frame rate : 59.940 FPS
Color space : YUV
Chroma subsampling : 4:2:0
Bit depth : 8 bits
Scan type : Progressive
Bits/(Pixel*Frame) : 0.057
Stream size : 3.72 GiB (87%)
Forced : No
Color range : Limited
Color primaries : BT.709
Transfer characteristics : BT.709
Matrix coefficients : BT.709

UFC 257 Free

Audio
ID : 2
Format : MPEG Audio
Format profile : Layer 2
Codec ID : A_MPEG/L2
Codec ID/Hint : MP2
Duration : 2 h 49 min
Bit rate mode : Constant
Bit rate : 384 kb/s
Channel(s) : 2 channels
Sampling rate : 48.0 kHz
Compression mode : Lossy
Stream size : 465 MiB (11%)
Language : English
Default : Yes
Forced : No

 

 

https://dx-tv.com/

You May Also Like

Leave a Reply

Your email address will not be published. Required fields are marked *

This site uses Akismet to reduce spam. Learn how your comment data is processed.