UFC 256 Free Full Show Online DX-TV

UFC 256 Free Full Show Online DX-TV

UFC 256 Free

 

 UFC 256 Free Livestream

 

Download Links with premium High Speed   

 

 

dropapk.to

http://shrt10.com/fp2EgJtn

 

 

nitroflare.com

http://shrt10.com/s3iUuh

 

 

rapidgator.net

http://shrt10.com/w2E1xn

 

 

uploaded.net

http://shrt10.com/FmHCA3DP

 

 

uploadgig.com

http://shrt10.com/mJ4GM

 

Watch online

 

Server 1

 

 

 

 

UFC 256 Free

 

 

 

 

Server-2

 

 

 

 

watch now

 

 

 

 

Uploaded By Site DX-TV.com

 

 

 

[su_expand more_text=”Show More Info” less_text=”Close all Info” height=”50″ text_color=”#000000″ link_color=”#e25f8b” link_style=”button” more_icon=”icon: arrow-down” less_icon=”icon: arrow-up”]

Complete name : UFC.256.Main.Card.HDTV.720p.x264-CLUNGE.mp4
Format : MPEG-4
Format profile : Base Media
File size : 3.23 GiB
Duration : 3 h 33 min
Overall bit rate mode : Variable
Overall bit rate : 2 160 kb/s
Writing application : Lavf57.71.100

UFC 256  

Video
ID : 1
Format : AVC
Duration : 3 h 33 min
Bit rate mode : Variable
Bit rate : 2 027 kb/s
Maximum bit rate : 2 500 kb/s
Width : 1 280 pixels
Height : 720 pixels
Display aspect ratio : 16:9
Frame rate mode : Constant
Frame rate : 25.000 FPS
Color space : YUV
Chroma subsampling : 4:2:0
Bit depth : 8 bits
Scan type : Progressive
Bits/(Pixel*Frame) : 0.088
Stream size : 3.03 GiB (94%)
Codec configuration box : avc

UFC 256 Free

Audio
ID : 2
Format : AAC LC
Codec ID : mp4a-40-2
Duration : 3 h 33 min
Bit rate mode : Variable
Bit rate : 128 kb/s
Maximum bit rate : 141 kb/s
Channel(s) : 2 channels
Channel layout : L R
Sampling rate : 48.0 kHz
Frame rate : 46.875 FPS (1024 SPF)
Compression mode : Lossy
Stream size : 196 MiB (6%)
Default : Yes
Alternate group : 1

UFC 256  

Format : AAC LC
Codec ID : mp4a-40-2
Duration : 3 h 33 min
Bit rate mode : Variable
Bit rate : 128 kb/s
Maximum bit rate : 141 kb/s
Channel(s) : 2 channels
Channel layout : L R
Sampling rate : 48.0 kHz
Frame rate : 46.875 FPS (1024 SPF)
Compression mode : Lossy
Stream size : 196 MiB (6%)
Default : Yes
Alternate group : 1

[/su_expand]

 

https://dx-tv.com/

Leave a Reply

Your email address will not be published. Required fields are marked *

This site uses Akismet to reduce spam. Learn how your comment data is processed.