UFC 255 PPV Free Full Show Online DX-TV

Watch UFC 255 PPV Free Full Show Online DX-TV

UFC 255

 

 UFC 255

 

[su_expand more_text=”Show More Info” less_text=”Close all Info” height=”30″ text_color=”#000000″ link_color=”#e25f8b” link_style=”button” more_icon=”icon: arrow-down” less_icon=”icon: arrow-up”]

 

Complete name : UFC.255.Figueiredo.vs.Perez.WEB.h264-DaShield.mp4
Format : MPEG-4
Format profile : Base Media
Codec ID : isom
File size : 2.45 GiB
Duration : 3 h 16 min
Overall bit rate mode : Variable
Overall bit rate : 1 787 kb/s
Writing application : Lavf53.24.2

UFC 255

Video
ID : 1
Format : AVC
Duration : 3 h 16 min
Bit rate mode : Variable
Bit rate : 1 663 kb/s
Width : 896 pixels
Height : 504 pixels
Display aspect ratio : 16:9
Frame rate mode : Variable
rate : 30.000 FPS
frame rate : 29.412 FPS
Standard : NTSC
Color space : YUV
Chroma subsampling : 4:2:0
Bit depth : 8 bits
Scan type : Progressive
Bits/(Pixel*Frame) : 0.123
Stream size : 2.26 GiB (92%)
Color primaries : BT.709
Transfer characteristics : BT.709
Matrix coefficients : BT.709
Codec configuration box : avc

UFC 255

Audio
ID : 2
Format : AAC LC
Format/Info : Advanced Audio
Codec ID : mp4a-40-2
Duration : 3 h 16 min
Bit rate mode : Variable
Bit rate : 132 kb/s
Maximum bit rate : 162 kb/s
Channel(s) : 2 channels
Channel layout : L R
Sampling rate : 48.0 kHz
Frame rate : 46.875 FPS (1024 SPF)
Compression mode : Lossy
Stream size : 185 MiB (7%)
Default : Yes
Alternate group : 1

UFC 255

Complete name : UFC.255.Figueiredo.vs.Perez.720p.WEB.h264-DaShield.mp4
Format : MPEG-4
Format profile : Base Media
Codec ID : isom
File size : 4.40 GiB
Duration : 3 h 16 min
Overall bit rate mode : Variable
Overall bit rate : 3 209 kb/s
Writing application : Lavf53.24.2

UFC 255

Video
ID : 1
Format : AVC
Duration : 3 h 16 min
Bit rate mode : Variable
Bit rate : 3 068 kb/s
Maximum bit rate : 3 159 kb/s
Width : 1 280 pixels
Height : 720 pixels
Display aspect ratio : 16:9
Frame rate mode : Variable
Frame rate : 30.000 FPS 
Standard : NTSC
Color space : YUV
Chroma subsampling : 4:2:0
Bit depth : 8 bits
Scan type : Progressive
Bits/(Pixel*Frame) : 0.111
Stream size : 4.21 GiB (96%)
Color range : Limited
Color primaries : BT.709
Transfer characteristics : BT.709
Matrix coefficients : BT.709
Codec configuration box : avc

UFC 255

Audio
ID : 2
Format : AAC LC
Format/Info : Advanced Audio
Codec ID : mp4a-40-2
Duration : 3 h 16 min
Bit rate mode : Variable
Bit rate : 132 kb/s
Maximum bit rate : 162 kb/s
Channel(s) : 2 channels
Channel layout : L R
Sampling rate : 48.0 kHz
Frame rate : 46.875 FPS
Compression mode : Lossy
Stream size : 185 MiB (4%)
Default : Yes
Alternate group : 1

 

 

[/su_expand]

 

 

Watch online

 

 

Server 1

 

 

 

 

 

 

 

 

Server-2

 

 

 

 

 

 

 

 

Uploaded By Site DX-TV.com

UFC 255 PPV

 

Download Links with premium High Speed   

 

 

 

 

dropapk.to

http://shrt10.com/uFJ53f
http://shrt10.com/6qppe

 

 

nitroflare.com

http://shrt10.com/UAsfNoAp
http://shrt10.com/NX0GXqOP

 

 

rapidgator.net

http://shrt10.com/FKWUhub
http://shrt10.com/SkwWJoZMv

 

 

uploaded.net

http://shrt10.com/8dlwHZEu
http://shrt10.com/OVEmblcm2

 

 

uploadgig.com

http://shrt10.com/8jMr03Ou
http://shrt10.com/6iDYN

 

 

 

 

dx-tv.com

 

urlfree.net

You May Also Like

Leave a Reply

Your email address will not be published. Required fields are marked *

This site uses Akismet to reduce spam. Learn how your comment data is processed.