UFC 251 PPV 1080p Full Show Free mp4

Watch UFC 251 Usman vs Masvidal 1080p Full Show Online DX-TV

 

UFC 251 Full Show

 UFC 251 Free Online

 

UFC 251 PPV 1080p Full Show Free mp4

 

 

 

Complete name : UFC.251.Usman.vs.Masvidal.1080p.WEB-WDTeam.m4v
Format : MPEG-4
Format profile : Base Media
Codec ID : isom (isom)
File size : 9.75 GiB
Duration : 3 h 53 min
UFC 251 Full Show mode : Variable
Overall bit rate : 5 971 kb/s
Encoded date : UTC 2020-07-11
Tagged date : UTC 2020-07-11

UFC 251 PPV 1080p Full Show Free mp4

Video
ID : 1
Format : AVC
Format/Info : Advanced Video Codec
profile : [email protected]
Format settings : CABAC / 1 Ref Frames
settings, CABAC : Yes
UFC 251 Full Show, : 1 frame
Format settings, GOP : M=1, N=60
Codec ID : avc1
Codec ID/Info : UFC 251 Full Show
Duration : 3 h 53 min
Source duration : 3 h 53 min
Bit rate mode : Variable
Bit rate : 5 837 kb/s
Maximum bit rate : 8 864 kb/s
Width : 1 920 pixels
Height : 1 080 pixels
Display aspect ratio : 16:9
Frame rate mode : Variable
Frame rate : 30.000 FPS
Minimum frame rate : 29.412 FPS
Maximum frame rate : 30.303 FPS
Color space : YUV
Chroma subsampling : 4:2:0
Bit depth : 8 bits
Scan type : Progressive
Bits/(Pixel*Frame) : 0.094
Stream size : 9.52 GiB (98%)
Source stream size : 9.52 GiB (98%)
Tagged date : UTC 2020-07-11 06:03:47
Codec UFC 251 Full Show box : avcC

UFC 251 PPV 1080p Full Show Free mp4

Audio
ID : 2
Format : AAC LC
Format/Info : UFC 251 Full Show Complexity
Codec ID : mp4a-40-2
Duration : 3 h 53 min
Bit rate mode : Variable
Bit rate : 132 kb/s
Maximum bit rate : 140 kb/s
Channel(s) : 2 channels
Channel layout : L R
Sampling rate : 48.0 kHz
Frame rate : 46.875 FPS (1024 SPF)
UFC 251 Full Show : Lossy
Stream size : 220 MiB (2%)
Default : Yes
Alternate group : 1
Tagged date : UTC 2020-07-11

 

Fight card UFC 251 PPV

 

Main card

 

Kamaru Usman (c) vs. Jorge Masvidal – Welterweight

Alexander Volkanovski (c) vs. Max Holloway – Featherweight

Petr Yan vs. Jose Aldo – Bantamweight UFC 251

Jessica Andrade vs. Rose Namajunas – Women’s Strawweight

Amanda Ribas vs. Paige VanZant – Women’s Flyweight

 

Preliminary Card UFC 251

 

Volkan Oezdemir vs. Jiri Prochazka – Light Heavyweight

Elizeu Zaleski dos Santos vs. Muslim Salikhov – Welterweight

Makwan Amirkhani vs. Danny Henry – Featherweight

Leonardo Santos vs. Roman Bogatov – Lightweight UFC 251

Marcin Tybura vs. Alexander Romanov – Heavyweight

Raulian Paiva vs. Zhalgas Zhumagulov – Flyweight

Karol Rosa vs. Vanessa Melo – Women’s Bantamweight

Davey Grant vs. Martin Day – Bantamweight Free Live

 

UFC 251 PPV 1080p Full Show Free mp4

 

 

 

Watch online

 

 

Server 1

 

 

watch now

 

 

 

 

Server 2

 

 

 

watch now

 

 

 

Server-3

 

 

 

UFC 251 Full Show

 

 

Uploaded By Site DX-TV.com

 

 

 

Download with premium account Links 

 

 

Keep2Share

 

 

nitroflare.com

 

 

rapidgator.net

 

 

uploadgig.com

 

 

 

dx-tv.com

 

urlfree.net