UFC 248 Full Event PPV Feed 1080i HDTV

Watch UFC 248 Full Event PPV Feed 1080i HDTV 50 GB DX-TV

UFC

 UFC 248

 

 

UFC 248 Full Event PPV Feed 1080i HDTV

 

Complete name : UFC.248.Full.PPV.1080i.HDTV-WH.ts
Format : MPEG-TS
File size : 50.2 GiB
Duration : 7 h 55 min
Overall bit rate mode : Variable
Overall bit rate : 15.1 Mb/s

Video
Menu ID : 1 (0x1)
Format : AVC
Codec ID : 27
Duration : 2 h 32 min
Bit rate mode : UFC
Bit rate : 13.7 Mb/s
Width : 1 920 pixels
Height : 1 080 pixels
Display aspect ratio : 16:9
Frame rate : 25.000 FPS
Color space : YUV
Chroma subsampling : 4:2:0
Bit depth : 8 bits
Scan type : MBAFF
Scan order : UFC
Bits/(Pixel*Frame) : 0.264
Stream size : 14.1 GiB (28%)
Color range : Limited
Color primaries : BT.709
Transfer characteristics : BT.709
Matrix coefficients : BT.709

Audio #1
Menu ID : 1 (0x1)
Format version : UFC
Format profile : Layer 2
Codec ID : 3
Duration : 7 h 55 min
Bit rate mode : Constant
Bit rate : 384 kb/s
Channel(s) : 2 channels
Sampling rate : 48.0 kHz
Compression mode : Lossy
Delay relative to video : -176 ms
Stream size : 1.27 GiB (3%)

Audio #2
Menu ID : 1 (0x1)
Codec ID : 3
Duration : 7 h 55 min
Bit rate mode : Constant
Bit rate : 384 kb/s
Channel(s) : 2 channels
Sampling rate : 48.0 kHz
Compression mode : Lossy
Delay relative to video : -176 ms
Stream size : 1.27 GiB (3%)

Audio #3
Menu ID : 1 (0x1)
Format version : Version 1
Format profile : Layer 2
Codec ID : 3
Duration : 7 h 55 min
Bit rate mode : Constant
Bit rate : 224 kb/s
Channel(s) : 2 channels
Sampling rate : 48.0 kHz
Compression mode : Lossy
Delay relative to video : -152 ms
Stream size : 761 MiB (1%)

Audio #4
Menu ID : 1 (0x1)
Format version : Version 1
Format profile : Layer 2
Codec ID : 3
Duration : 7 h 55 min
Bit rate mode : UFC
Bit rate : 128 kb/s
Channel(s) : 2 channels
Sampling rate : 48.0 kHz
Compression mode : Lossy
Delay relative to video : -128 ms
Stream size : 435 MiB (1%)

 

 

 

Watch online

 

 

Server 1

 

 

 

 

watch now

 

 

 

 

Server 2

 

 

 

watch now

 

 

 

UFC 248 Full Event PPV Feed 1080i HDTV

 

 

Uploaded By Site DX-TV.com

 

Download with premium account Links 

 

 

nitroflare.com

https://shrt10.com/CHM9Mmy
https://shrt10.com/V5feF
https://shrt10.com/2CyRDzdwk
https://shrt10.com/gG0Nz9o
https://shrt10.com/qC5Sido5
https://shrt10.com/SVhOOd2jV
https://shrt10.com/TIKQb72

 

 

1 Link 50 GB

rapidgator.net

 

 

uploadgig.com

https://shrt10.com/RIwHqDpwh
https://shrt10.com/jhmLDON
https://shrt10.com/5sd8lPw
https://shrt10.com/6o6LJlwhk
https://shrt10.com/SfsPkA
https://shrt10.com/9chYvlq
https://shrt10.com/iOePM

 

 

dx-tv.com

 

Leave a Reply

Your email address will not be published. Required fields are marked *

This site uses Akismet to reduce spam. Learn how your comment data is processed.

%d bloggers like this: