UFC 247 PPV 1080p Full Show

UFC 247 PPV 1080p Full Show DX-TV

 

 

 

 UFC 247

 

 

 

 

UFC 247 PPV 1080p Full Show

 

 

 

 

 

Complete name : UFC.247.1080p.HDTV.DD2.0.H.264-JustHD.ts
Format : MPEG-TS
File size : 10.5 GiB
Duration : 2 h 55 min
Overall bit rate mode : Variable
Overall bit rate : 8 568 kb/s

Video
Format : AVC
Codec ID : 27
Duration : 2 h 55 min
Bit rate : 7 951 kb/s
Width : 1 920 pixels
Height : 1 080 pixels
Display aspect ratio : 16:9
Frame rate : 25.000 FPS
Standard : Component
Color space : YUV
Chroma subsampling : 4:2:0
Bit depth : 8 bits
Scan type : Progressive
Bits/(Pixel*Frame) : 0.153
Stream size : 9.74 GiB (93%)
Color range : Limited
Color primaries : BT.709
Transfer characteristics : BT.709
Matrix coefficients : BT.709

Audio
Format : AC-3
Codec ID : 129
Duration : 2 h 55 min
Bit rate mode : Constant
Bit rate : 192 kb/s
Channel(s) : 2 channels
Channel layout : L R
Sampling rate : 48.0 kHz
Frame rate : 31.250 FPS (1536 SPF)
Compression mode : Lossy
Stream size : 241 MiB (2%)
Language : English
Service kind : Complete Main

 

 

 

Watch online

 

 

Server 1

 

 

watch now

 

 

UFC 247 PPV 1080p Full Show

 

 

 

Uploaded By Site DX-TV.com

 

 

 

 

 

1fichier.com 

https://shrt10.com/ca62r
https://shrt10.com/fiiwO13

 

 

earn4files.com

 

https://shrt10.com/pYK0OfA
https://shrt10.com/c99tORx

 

 

Download with premium account Links 

 

 

Keep2Share

 

 

nitroflare.com

https://shrt10.com/VHMulE
https://shrt10.com/Vs2Xa

 

rapidgator.net

 

 

uploadgig.com

 

 

 

dx-tv.com

 

Leave a Reply

Your email address will not be published. Required fields are marked *

This site uses Akismet to reduce spam. Learn how your comment data is processed.

%d bloggers like this: