UFC 236 Max Holloway Vs Dustin Poirier 1080p HDTV H264-JustHD

 

 

 

 


 

 

 

dx-tv.com

 

 

 

 

 
Complete name : UFC 236 Max Holloway Vs Dustin Poirier 1080p HDTV DD 2.0 H264-JustHD.ts
Format : MPEG-TS
Format/Info : Advanced Video Codec
File size : 12.0 GiB
Duration : 3h 20mn
Overall bit rate : 8 559 Kbps

Video
ID : 4113 (0x1011)
Menu ID : 1 (0x1)
Format : AVC
Format/Info : Advanced Video Codec
Format settings, CABAC : Yes
Format settings, ReFrames : 3 frames
Codec ID : 27
Duration : 3h 20mn
Bit rate : 7 943 Kbps
Width : 1 920 pixels
Height : 1 080 pixels
Display aspect ratio : 16:9
Frame rate : 25.000 fps
Standard : Component
Color space : YUV
Chroma subsampling : 4:2:0
Bit depth : 8 bits
Scan type : Progressive
Bits/(Pixel*Frame) : 0.153
Stream size : 11.1 GiB (93%)

Audio
ID : 4352 (0x1100)
Menu ID : 1 (0x1)
Format : AC-3
Format/Info : Audio Coding 3
Mode extension : CM (complete main)
Codec ID : 129
Duration : 3h 20mn
Bit rate mode : Constant
Bit rate : 192 Kbps
Channel(s) : 2 channels
Channel positions : Front: L R
Sampling rate : 48.0 KHz
Bit depth : 16 bits
Compression mode : Lossy
Stream size : 275 MiB (2%)
Language : English

 

 

 

 

 


 

 

 

UFC 236 Max Holloway Vs Dustin Poirier 1080p HDTV H264-JustHD

 

 

 

 

Watch online

 

 

Waiting finish converting video

 

 

Server 1

 

 

 

 

 

 

 

 

 

 


 

 

 

 

Server 2

 

 

 

 

 

 

 

 

 

 

 


 

 

 

Uploaded By Site DX-TV.com

 

 

 

open rar file to see this password

 

 

 

 

The password : DX-TV.com

 

 

 

 

Uploaded.net + rapidgator.net

 

 

 

 


 

 

 

https://shrt10.c  om/9a3caFKO

 

 

https://shrt10.com/OW9ZLq6
 

 

 
https://shrt10.com/ZnEjJ00
 

 

 
https://shrt10.com/y7YXB
 

 

 
https://shrt10.com/dI1EQZL
 

 

 
https://shrt10.com/A0Fx
 

 

 

 

 

 

 

 

 

 

 

UFC 236 Max Holloway Vs Dustin Poirier 1080p HDTV H264-JustHD