UFC 230 PPV Cormier vs Lewis 1080i HDTV H264 ENG / RUS

UFC 230 PPV Cormier vs Lewis 1080i HDTV H264 ENG / RUS

 

 

 

 


 

 

 

dx-tv.com

 

 

 

 

 

Complete name : UFC 230 Cormier vs. Lewis.ts
Format : MPEG-TS
File size : 6.34 GiB
Duration : 2 h 34 min
Start time : UTC 1970-01-28 16:43:56
End time : UTC 1970-01-28 19:18:00
Overall bit rate mode : Variable
Overall bit rate : 5 891 kb/s

Video
Format settings, CABAC : Yes
Format settings, ReFrames : 3 frames
Codec ID : 27
Duration : 2 h 34 min
Bit rate mode : Constant
Bit rate : 5 145 kb/s
Width : 1 920 pixels
Height : 1 080 pixels
Display aspect ratio : 16:9
Frame rate : 25.000 FPS
Color space : YUV
Chroma subsampling : 4:2:0
Bit depth : 8 bits
Bits/(Pixel*Frame) : 0.099
Color range : Limited
Color primaries : BT.709
Transfer characteristics : BT.709
Matrix coefficients : BT.709

Audio #1
Format version : Version 1
Format profile : Layer 2
Codec ID : 3
Duration : 2 h 34 min
Bit rate mode : Constant
Bit rate : 192 kb/s
Channel(s) : 2 channels
Sampling rate : 48.0 kHz
Frame rate : 41.667 FPS
Compression mode : Lossy
Delay relative to video : -296 ms
Stream size : 212 MiB (3%)

Audio #2
Format version : Version 1
Format profile : Layer 2
Codec ID : 3
Duration : 2 h 34 min
Bit rate mode : Constant
Bit rate : 192 kb/s
Channel(s) : 2 channels
Sampling rate : 48.0 kHz
Frame rate : 41.667 FPS
Compression mode : Lossy
Delay relative to video : -296 ms
Stream size : 212 MiB (3%)

 

UFC 230 PPV Cormier vs Lewis 1080i HDTV H264 ENG / RUS

 

 

 

 

Watch online

 

 

Waiting finish converting video

 

 

Server 1

 

 

 

 

 

 

 

 

 

 

 

 

 

Server 2

 

 

 

 

 

 

 


 

 

 

 

Uploaded By Site DX-TV.com

 

 

 

open rar file to see this password

 

 

The password : DX-TV.com

 

 

Uploaded.net + rapidgator.net

 

 

 

http://shrt10.com/nd7o
 

 

http://shrt10.com/38sBc
 

 

http://shrt10.com/V5PvNy

 

 
http://shrt10.com/uBD2
 

 

 

 

 

UFC 230 PPV Cormier vs Lewis 1080i HDTV H264 ENG / RUS

Leave a Reply

This site uses Akismet to reduce spam. Learn how your comment data is processed.