UFC 230 Cormier vs Lewis 720p HDTV Star

UFC 230 Cormier vs Lewis 720p HDTV Star

 

 

 

 


 

 

 

dx-tv.com

 

 

 

 

 

Complete name : UFC.230.Cormier.vs.Lewis.720p.HDTV.x264-Star.mp4
Format : MPEG-4
Format profile : Base Media
File size : 5.57 GiB
Duration : 2 h 49 min
Overall bit rate mode : Variable
Overall bit rate : 4 696 kb/s
Encoded date : UTC 2018-11-04 06:24:07
Tagged date : UTC 2018-11-04 06:24:07

Video
ID : 1
Format : AVC
Format/Info : Advanced Video Codec
Codec ID/Info : Advanced Video Coding
Duration : 2 h 49 min
Bit rate : 4 500 kb/s
Width : 1 280 pixels
Height : 720 pixels
Display aspect ratio : 16:9
Frame rate mode : Constant
Frame rate : 29.970
Color space : YUV
Chroma subsampling : 4:2:0
Bit depth : 8 bits
Scan type : Progressive
Bits/(Pixel*Frame) : 0.163
Stream size : 5.33 GiB (96%)
Color range : Limited
Color primaries : BT.709
Transfer characteristics : BT.709
Matrix coefficients : BT.709

Audio
ID : 2
Format : AAC
Format/Info : Advanced Audio Codec
Format profile : LC
Codec ID : mp4a-40-2
Duration : 2 h 49 min
Bit rate mode : Variable
Bit rate : 192 kb/s
Channel(s) : 2 channels
Channel positions : Front: L R
Sampling rate : 48.0 kHz
Frame rate : 46.875 FPS (1024 SPF)
Compression mode : Lossy
Stream size : 233 MiB (4%)
Title : Stereo / Stereo
Default : Yes
Alternate group : 1
Encoded date : UTC 2018-11-04 06:24:07
Tagged date : UTC 2018-11-04 06:24:07

 

 

UFC 230 Cormier vs Lewis 720p HDTV Star

 

 

 

 

 

Uploaded By Site DX-TV.com

 

 

 

open rar file to see this password

 

 

 

 

The password : DX-TV.com

 

 

 

 

Uploaded.net + rapidgator.net

 

 

 

 

http://shrt10.com/l6zT
 

 

 

http://shrt10.com/zxT78iYA
 

 

 

http://shrt10.com/WeZrQx
 

 

 

http://shrt10.com/73UDw
 

 

 

 

 

 

 

UFC 230 Cormier vs Lewis 720p HDTV Star

Leave a Reply

This site uses Akismet to reduce spam. Learn how your comment data is processed.