UFC 226 PPV Miocic vs Cormier 07 07 2018 HDTV h264 1080p Gelo B Download

UFC 226 PPV Miocic vs Cormier 07 07 2018 HDTV h264 1080p Gelo B Download

 

 

 

 


 

 

dx-tv.com

 

 

 

 

 

Complete name : UFC 226 Miocic vs Cormier HDTV h264 1080p Gelo B.ts
Format : MPEG-TS
Format/Info : Advanced Video Codec
File size : 13.0 GiB
Duration : 2h 34mn
Overall bit rate : 12.0 Mbps

Video
ID : 201 (0xC9)
Menu ID : 777 (0x309)
Format : AVC
Codec ID : 27
Duration : 2h 34mn
Bit rate : 11.2 Mbps
Width : 1 920 pixels
Height : 1 080 pixels
Display aspect ratio : 16:9
Frame rate : 25.000 fps
Color space : YUV
Chroma subsampling : 4:2:0
Bit depth : 8 bits
Scan type : Interlaced
Bits/(Pixel*Frame) : 0.216
Stream size : 12.1 GiB (93%)

Audio
ID : 202 (0xCA)
Menu ID : 777 (0x309)
Format version : Version 1
Format profile : Layer 2
Codec ID : 4
Duration : 2h 34mn
Bit rate mode : Constant
Bit rate : 256 Kbps
Channel(s) : 2 channels
Sampling rate : 48.0 KHz
Compression mode : Lossy
Delay relative to video : 117ms
Stream size : 283 MiB (2%)
Language : English

 

 

 

 

 

 

 

UFC 226 PPV Miocic vs Cormier 07 07 2018 HDTV h264 1080p Gelo B Download

 

 

 

 

Uploaded By Site DX-TV.com

 

 

 

open rar file to see this password

 

 

 

 

The password : DX-TV.com

 

 

 

 

1080p

 

 

 

 

 

Uploaded.net + rapidgator.net

 

 

 

 

 

http://shrt10.com/N7aSUqp
 

http://shrt10.com/EhtEqtmG
 

http://shrt10.com/Yco9mrqM
 

http://shrt10.com/vpdNAK
 

http://shrt10.com/caZ8YkY
 

http://shrt10.com/lITL39
 

http://shrt10.com/3TpRL
 

http://shrt10.com/o7PJB
 

http://shrt10.com/w7xJJ
 

http://shrt10.com/7lya

 

 

 

 

 

 

 

 

UFC 226 PPV Miocic vs Cormier 07 07 2018 HDTV h264 1080p Gelo B Download