Triller Fight Club Holyfield vs Belfort 2021 Replay

 Triller Fight Club 720p Evander Holyfield vs Vitor Belfort Online Replay 2021 09 11 PPV Online Replay DX-TV

Triller Fight Club

 Triller Fight Club

 

 

 

Download Links with premium High Speed
 

 


 

Dopapk

 

 

Show Links

 

 

 

 

 

 

 

Nitroflare

 

 

Show Links

 

 

https://shrt10.com/Q576WP
https://shrt10.com/Yf9h6n
https://shrt10.com/5kKcj9y7e

 

 

 

 

Rapidgator

 

 

Show Links

 

 

https://shrt10.com/1ixCeAA1Q
https://shrt10.com/A6fTJBOkJ
https://shrt10.com/fjMQFww

 

 

 

 

 

Uploaded
 

 

 

Show Links

 

 

https://shrt10.com/HVCpMcOr
https://shrt10.com/AtvvV

 

 

 

 

 

 

 

Watch online

 

Server 1

 

 

 

 

watch now

 

 

 

 

Server-2

 

 

 

 

Triller Fight Club

 

 

 

|Server-3

 

 

 

 

watch now

 

 

Uploaded By Site DX-TV.com

 

 

Open Info Show

Triller Fight Club

 

Saturday 11, September 2021
Seminole Hard Rock Hotel and Casino, Hollywood, Florida, USA

David Haye (28-4) vs. Joe Fournier, 8×2 rounds, heavy

Andy Vences (23-2-1) vs Jono Carroll (19-2-1), 10 rounds, super feather

Anderson Silva (2-1) vs Tito Ortiz (debut), 8×2 rounds, heavy

Evander Holyfield (44-10-2) vs Vitor Belfort (debut), 8×2 rounds, heavy

Complete name : 2021-09-11 Triller Fight Club PPV.mkv

Triller Fight Club

Format : Matroska
Format version : Version 4
File size : 7.04 GiB
Duration : 3 h 25 min
Overall bit rate : 4 899 kb/s
Video
ID : 1
Format : AVC
Format/Info : Advanced Video
Duration : 3 h 25 min
Width : 1 920 pixels
Height : 1 080 pixels
Display aspect ratio : 16:9
Frame rate mode : Constant
Frame rate : 29.970 (30000/1001) FPS
Color space : YUV
Chroma subsampling : 4:2:0
Bit depth : 8 bits
Scan type : Progressive
Default : Yes
Forced : No

Triller Fight Club

Audio
ID : 2
Format : AAC LC
Format/Info : Advanced Audio
Codec ID : A_AAC-2
Duration : 3 h 25 min
Channel(s) : 2 channels
Channel layout : L R
Sampling rate : 48.0 kHz
Frame rate : 46.875 FPS
Compression mode : Lossy
relative to video : -47 ms
Default : Yes
Forced : No

Complete name : Triller Fight Club Holyfield vs Belfort 2021-09-11 720p WEB By DX-TV.com.mp4
Format : MPEG-4
Format profile : Base Media
Codec ID : mp42 (mp42)
File size : 4.54 GiB
Duration : 3 h 25 min
Overall bit rate : 3 165 kb/s

Video
ID : 1
Format : AVC
Format/Info : Advanced Video
Duration : 3 h 25 min
Bit rate : 3 028 kb/s
Width : 1 280 pixels
Height : 720 pixels
Display aspect ratio : 16:9
Frame rate mode : Constant
Frame rate : 30.000 FPS
Color space : YUV
Chroma subsampling : 4:2:0
Bit depth : 8 bits
Scan type : Progressive
Bits/(Pixel*Frame) : 0.110
Stream size : 4.35 GiB (96%)
Language : English
Codec configuration box : avc

Triller Fight Club

Audio
ID : 2
Format : AAC LC
Format/Info : Advanced Audio
Codec ID : mp4a-40-2
Duration : 3 h 25 min
Bit rate mode : Constant
Bit rate : 128 kb/s
Channel(s) : 2 channels
Channel layout : L R
Sampling rate : 44.1 kHz
Frame rate : 43.066 FPS (1024 SPF)
Compression mode : Lossy
Stream size : 188 MiB (4%)
Title : Stereo
Language : English
Default : Yes
Alternate group : 1

Complete name : Triller Fight Club Holyfield vs Belfort 2021-09-11 480p WEB By DX-TV.com.mp4
Format : MPEG-4
Format profile : Base Media
Codec ID : mp42 (mp42)
File size : 2.37 GiB
Duration : 3 h 25 min
Overall bit rate : 1 647 kb/s
Video
ID : 1
Format : AVC
Format/Info : Advanced Video
Duration : 3 h 25 min
Bit rate : 1 512 kb/s
Width : 720 pixels
Height : 480 pixels
Display aspect ratio : 3:2
Frame rate mode : Constant
Frame rate : 30.000 FPS
Color space : YUV
Chroma subsampling : 4:2:0
Bit depth : 8 bits
Scan type : Progressive
Bits/(Pixel*Frame) : 0.146
Stream size : 2.17 GiB (92%)
Language : English
Codec configuration box : avc

Triller Fight Club

Audio
ID : 2
Format : AAC LC
Format/Info : Advanced Audio
Codec ID : mp4a-40-2
Duration : 3 h 25 min
Bit rate mode : Constant
Bit rate : 128 kb/s
Channel(s) : 2 channels
Channel layout : L R
Sampling rate : 44.1 kHz
Frame rate : 43.066 FPS (1024 SPF)
Compression mode : Lossy
Stream size : 188 MiB (8%)
Title : Stereo
Language : English
Default : Yes
Alternate group : 1

 

 

https://dx-tv.com/

 

 

 

 

 

1 Comment

Leave a Reply

Your email address will not be published. Required fields are marked *

This site uses Akismet to reduce spam. Learn how your comment data is processed.