Top Rank Spelman Arthur 31 07 2020 1080p

Watch Boxing Spelman Arthur 31 07 2020 1080p DX-TV

 

Top Rank Spelman

 

 Boxing Spelman Arthur
 

 

Top Rank Spelman Arthur 31 07 2020 1080p

 

 

 

Complete name : Top Rank Boxing on ESPN 07-31-2020 WEB 1080p MP4 AAC.mp4
Format : MPEG-4
Format profile : Base Media
Codec ID : isom
File size : 25.2 GiB Top Rank Spelman
Duration : 2 h 18 min
Overall bit rate : 26.0 Mb/s

 Rank Spelman Arthur 31 07 2020 1080p

Video
ID : 1
Format : AVC
Duration : 2 h 18 min
Bit rate : 25.7 Mb/s
Width : 1 920 pixels
Height : 1 080 pixels
Display aspect ratio : 16:9
Frame rate : 59.940 (60000/1001) FPS
Color space : YUV Top Rank Spelman
Chroma sub sampling : 4:2:0
Bit depth : 8 bits
Scan type : Progressive
Bits/(Pixel*Frame) : 0.207
Stream size : 24.9 GiB (99%)
Color range : Limited
Color primaries : BT.709
Transfer characteristics : BT.709
Matrix coefficients : BT.709
Menus : 3
Codec configuration box : avcC

 Rank Spelman Arthur 31 07 2020 1080p

Audio
ID : 2
Format : AAC LC
Format/Info : Advanced
Codec ID : mp4a-40-2
Duration : 2 h 18 min
Duration_LastFrame : -21 ms
Bit rate mode : Constant
Bit rate : 317 kb/s
Channel(s) : 2 channels Top Rank Spelman
Channel layout : L R
Sampling rate : 48.0 kHz
Frame rate : 46.875 FPS (1024 SPF)
Compression mode : Lossy
Stream size : 315 MiB (1%)
Language : English
Default : Yes
Alternate group : 1
Menus : 3

Menu #1
ID : 3
Codec ID : txet
Duration : 2 h 18 min
Language : English
Menu For : 1,2

 

 

Top Rank Spelman Arthur 31 07 2020 1080p

 

 

Watch online

 

 

Server 1

 

 

 

 

watch now

 

 

 

 

Server 2

 

 

 

watch now

 

 

 

Server-3

 

 

 

Top Rank Spelman

 

 

 

Uploaded By Site DX-TV.com

 

 

 

Download with premium account Links 

 

 

  

1 link 25 GB

 

rapidgator.net

 

 

 

 

dx-tv.com

 

urlfree.net

 39 total views,  7 views today

Leave a Reply

Your email address will not be published. Required fields are marked *

This site uses Akismet to reduce spam. Learn how your comment data is processed.

%d bloggers like this: