Top Rank Boxing on ESPN Valdez vs Conceicao 2021 Replay

Top Rank Boxing on ESPN Valdez vs Conceicao 480p/ 720p Main Card/ UnderCard 2021 09 10 Replay DX-TV

Top Rank Boxing

 Top Rank Boxing

 

 

 

Download Links with premium High Speed
 

 


 

Dopapk

 

 

Show Links

 

 

https://shrt10.com/ktCTW2
https://shrt10.com/k5PgYW

 

 

 

 

 

Nitroflare

 

 

Show Links

 

 

https://shrt10.com/oOWMTOG6K
https://shrt10.com/2aWSDKm
https://shrt10.com/a5He3J
https://shrt10.com/OC9AKk6

 

 

 

 

Rapidgator

 

 

Show Links

 

 

https://shrt10.com/iVVyyu
https://shrt10.com/CBdfn
https://shrt10.com/YrJdXmZ
https://shrt10.com/3o1sQts

 

 

 

 

 

Uploaded
 

 

 

Show Links

 

 

https://shrt10.com/xZWk0d0hM
https://shrt10.com/JylZ4

 

 

 

 

 

 

 

Watch online

 

Server 1

 

 

 

 

Top Rank Boxing

 

watch now

 

 

 

 

Server-2

 

 

 

 

Top Rank Boxing

 

watch now

 

 

 

|Server-3

 

 

 

 

watch now

 

Top Rank Boxing

 

 

Uploaded By Site DX-TV.com

 

 

Open Info Show

 

Complete name : Top Rank Boxing on ESPN 2021-09-10 Valdez vs. Conceicao (Undercard) DX-TV.com.mp4
Format : MPEG-4
Format profile : Base Media
Codec ID : mp42
File size : 2.67 GiB
Duration : 3 h 17 min
Overall bit rate : 1 939 kb/s

Video
ID : 1
Format : AVC
Format/Info : Advanced Video
Duration : 3 h 17 min
Bit rate : 1 769 kb/s
Width : 720 pixels
Height : 480 pixels
Display aspect ratio : 16:9
Original display aspect rat : 16:9
Frame rate mode : Constant
Frame rate : 30.000 FPS
Color space : YUV
Chroma subsampling : 4:2:0
Bit depth : 8 bits
Scan type : Progressive
Bits/(Pixel*Frame) : 0.171
Stream size : 2.44 GiB (91%)
Color range : Limited
Color primaries : BT.709
Transfer characteristics : BT.709
Matrix coefficients : BT.709
Codec configuration box : avc

Top Rank Boxing

Audio
ID : 2
Format : AAC LC
Format/Info : Advanced Audio
Codec ID : mp4a-40-2
Duration : 3 h 17 min
Bit rate mode : Constant
Bit rate : 161 kb/s
Channel(s) : 2 channels
Channel layout : L R
Sampling rate : 48.0 kHz
Frame rate : 46.875 FPS
Compression mode : Lossy
Stream size : 227 MiB (8%)
Title : Stereo
Default : Yes
Alternate group : 1

 

Complete name : Top Rank Boxing on ESPN 2021-09-10 Valdez vs. Conceicao (Cain card) DX-TV.com.mp4
Format : MPEG-4
Format profile : Base Media
Codec ID : mp42
File size : 2.37 GiB
Duration : 2 h 35 min
Overall bit rate : 2 182 kb/s

Video
ID : 1
Format : AVC
Duration : 2 h 35 min
Bit rate : 2 012 kb/s
Width : 720 pixels
Height : 480 pixels
Display aspect ratio : 16:9
Original display aspect rat : 16:9
Frame rate mode : Constant
Frame rate : 30.000 FPS
Color space : YUV
Chroma subsampling : 4:2:0
Bit depth : 8 bits
Scan type : Progressive
Bits/(Pixel*Frame) : 0.194
Color range : Limited
Color primaries : BT.709
Transfer characteristics : BT.709
Matrix coefficients : BT.709
Codec configuration box : avcC

Top Rank Boxing

Audio
ID : 2
Format : AAC LC
Format/Info : Advanced Audio
Codec ID : mp4a-40-2
Duration : 2 h 35 min
Bit rate mode : Constant
Bit rate : 161 kb/s
Channel(s) : 2 channels
Channel layout : L R
Sampling rate : 48.0 kHz
Frame rate : 46.875 FPS
Compression mode : Lossy
Stream size : 179 MiB (7%)
Title : Stereo
Default : Yes
Alternate group : 1

 

 

Complete name : 2021-09-10 TR on ESPN (UC).mkv
Format : Matroska
Format version : Version 4
File size : 9.65 GiB
Duration : 3 h 17 min
Overall bit rate : 7 003 kb/s
Writing application : Lavf58.65.101

Video
ID : 1
Format : AVC
Codec ID : V_MPEG4/ISO/AVC
Duration : 3 h 17 min
Bit rate mode : Constant
Nominal bit rate : 6 872 kb/s
Width : 1 280 pixels
Height : 720 pixels
Display aspect ratio : 16:9
Frame rate mode : Constant
Frame rate : 59.940 (60000/1001) FPS
Color space : YUV
Chroma subsampling : 4:2:0
Bit depth : 8 bits
Scan type : Progressive
Bits/(Pixel*Frame) : 0.124
Default : Yes
Forced : No

Top Rank Boxing

Audio
ID : 2
Format : AAC LC
Format/Info : Advanced Audio
Codec ID : A_AAC-2
Duration : 3 h 17 min
Channel(s) : 2 channels
Channel layout : L R
Sampling rate : 48.0 kHz
Frame rate : 46.875 FPS (1024 SPF)
Compression mode : Lossy
Delay relative to video : 16 ms
Default : Yes
Forced : No

Complete name : 2021-09-10 TR on ESPN (MC).mkv
Format : Matroska
Format version : Version 4
File size : 7.61 GiB
Duration : 2 h 35 min
Overall bit rate : 7 007 kb/s
Writing application : Lavf58.65.101
Writing library : Lavf58.65.101
ErrorDetectionType : Per level 1

Top Rank Boxing

Video
ID : 1
Format : AVC
Codec ID : V_MPEG4/ISO/AVC
Duration : 2 h 35 min
Bit rate mode : Constant
Nominal bit rate : 6 872 kb/s
Width : 1 280 pixels
Height : 720 pixels
Display aspect ratio : 16:9
Frame rate mode : Constant
Frame rate : 59.940 (60000/1001) FPS
Color space : YUV
Chroma subsampling : 4:2:0
Bit depth : 8 bits
Scan type : Progressive
Bits/(Pixel*Frame) : 0.124
Default : Yes
Forced : No

 

https://dx-tv.com/top-rank-boxing-on-espn-20120-01-11-hdtv-dx-tv/

Audio
ID : 2
Format : AAC LC
Format/Info : Advanced Audio
Codec ID : A_AAC-2
Duration : 2 h 35 min
Channel(s) : 2 channels
Channel layout : L R
Sampling rate : 48.0 kHz
Frame rate : 46.875 FPS (1024 SPF)
Compression mode : Lossy
Delay relative to video : 6 ms
Default : Yes
Forced : No

Top Rank Boxing

Saturday 11, September 2021
Pabellón de la Vall d’Hebron, Barcelona, Cataluña, Spain

Cyrus Pattinson (1-0) vs. Dumitru Vicol (1-1), 6 rounds, super welter

Moussa Gholam (16-0) vs. Mauro Alex Hasan Perouene (12-3-1), 8 rounds, light

Cristobal Lorente (12-0-1) vs. Anuar Salas (12-10-1), 8 rounds, super feather

Kiko Martinez (41-10-2) vs Jayro Duran (14-9), 8 rounds, feather

Mary Romero (6-2) vs Amy Timlin (4-0-1), 10×2 rounds, EBU European Female Super Bantam Title

Kerman Lejarraga (32-2) vs Dylan Charrat (20-0-1), 12 rounds, vacant EBU European Super Welter Title

 

 

https://dx-tv.com/

 

 

 

 

 

1 Comment

Leave a Reply

Your email address will not be published. Required fields are marked *

This site uses Akismet to reduce spam. Learn how your comment data is processed.