Top Rank Boxing 2020 10 03 Zepeda vs Baranchyk 1080i

Watch Top Rank Boxing 2020 10 03 Zepeda vs Baranchyk 1080i DX-TV

Top Rank Boxing 2020 10 03

 

 Top Rank Boxing
 


 

 

Top Rank Boxing 2020 10 03 Zepeda vs Baranchyk 1080i

 

Wil Esco

Jose Zepeda is a pretty patient southpaw with pretty good technical ability, and can put together some accurate punches,

but I have to wonder if his patience isn’t going to allow Ivan Baranchyk to gain exactly the kind of forward momentum he thrives on.

Baranchyk won’t really be looking for a boxing match anyway,

and if he can make it a rugged fight I think he can outwork Zepeda to win rounds.

Top Rank Boxing 2020 10 03

Thus, for me, it becomes a question of whether or not Zepeda is good enough to continually pick off Baranchyk in the matador role.

I have a hunch he won’t be able to effectively do that over the duration ,

and that will allow Baranchyk to fight in his preferred rhythm more often than not.

I’ll take Baranchyk to win a 116-112 type of decision. Baranchyk UD-12

 

Top Rank Boxing 2020 10 03

Complete name : Top.Rank.Boxing.2020.10.03.Zepeda.vs.Baranchyk.1080i.HDTV-DX-TV.ts
Format : MPEG-TS
File size : 30.5 GiB
Duration : 4 h 25 min
Overall bit rate mode : Variable
Overall bit rate : 16.5 Mb/s

Video
Menu ID : 1 (0x1)
Codec ID : 27
Duration : 4 h 25 min
Bit rate : 14.9 Mb/s
Width : 1 920 pixels
Height : 1 080 pixels
Display aspect ratio : 16:9
Frame rate : 25.000 FPS
Color space : YUV
Chroma  : 4:2:0
Bit depth : 8 bits
Scan type : Interlaced
Scan order : Top Field First
Bits/(Pixel*Frame) : 0.287
Stream size : 27.5 GiB (90%)
Color range : Limited
Color primaries : BT.709
Transfer characteristics : BT.709
Matrix coefficients : BT.709

Top Rank Boxing 2020 10 03

Audio #1
ID : 102 (0x66)
Menu ID : 1 (0x1)
Format version : Version 1
Format profile : Layer 2
Codec ID : 3
Duration : 4 h 25 min
Bit rate mode : Constant
Bit rate : 384 kb/s
Channel(s) : 2 channels
Sampling rate : 48.0 kHz
Frame rate : 41.667 FPS
Compression mode : Lossy
Delay relative to video : -91 ms
Stream size : 728 MiB (2%)
Language : English

Top Rank Boxing 2020 10 03

Audio #2
ID : 103 (0x67)
Menu ID : 1 (0x1)
Format : MPEG Audio
version : Version 1
Format profile : Layer 2
Codec ID : 3
Duration : 4 h 25 min
Bit rate mode : Constant
Bit rate : 384 kb/s
Channel(s) : 2 channels
Sampling rate : 48.0 kHz
Frame rate : 41.667 FPS (1152 SPF)
Compression mode : Lossy
Delay relative to video : -75 ms
Stream size : 728 MiB (2%)
Language : English

 

 

 

Top Rank Boxing 2020 10 03 Zepeda vs Baranchyk 1080i

 

 

Watch online

 

 

Server 1

 

 

 

 

watch now

 

 

 

 

Server-2

 

 

 

watch now

 

 

 

 

Server-3

 

 

 

Top Rank Boxing 2020 10 03

 

 

 

 

Uploaded By Site DX-TV.com

 

Download Links with premium High Speed   

 

 

1 link 30GB

rapidgator.net

 

 

 

 

 

dx-tv.com

 

urlfree.net

Leave a Reply

Your email address will not be published. Required fields are marked *

This site uses Akismet to reduce spam. Learn how your comment data is processed.