Top Rank Boxing 1080i 14 07 2020 Full Show Download

Top Rank Boxing 1080i 14 07 2020 Full Show Download 17GB DX-TV

 

Boxing

 Top Rank Boxing

Top Rank Boxing 1080i 14 07 2020 Full Show Download Online

Complete name : Top Rank Boxing on ESPN 07-14-2020 HDTV 1080i TS – BY DX-TV.COM.ts
Format : MPEG-TS
File size : 17.2 GiB
Duration : 2 h 8 min
Overall bit rate mode : Constant
Overall bit rate : 19.2 Mb/s

Top Rank Boxing 1080i 14 07 2020 Full Show Download

Video
ID : 4113 (0x1011)
Menu ID : 1 (0x1)
Format : AVC
Format/Info : Boxing
profile : [email protected]
Format settings, CABAC : Yes
Boxing: 2 frames
GOP : M=1, N=15
Codec ID : 27
Duration : 1 h 56 min
Bit rate : 17.6 Mb/s
Width : 1 920 pixels
Height : 1 080 pixels
Display aspect ratio : 16:9
Frame rate : 29.970 (30000/1001) FPS
Color space : YUV
Chroma subsampling : 4:2:0
Bit depth : 8 bits
Scan type : MBAFF
type, : Boxing fields
Scan order : Top Field First
Bits/(Pixel*Frame) : 0.283
Stream size : 14.3 GiB (83%)

Boxing 1080i 14 07 2020 Full Show Download

Audio
ID : 4352 (0x1100)
Menu ID : 1 (0x1)
Format : AC-3
Format/Info : Boxing
Commercial name : Dolby Digital
Codec ID : 129
Duration : 2 h 8 min
Bit rate mode : Constant
Bit rate : 640 kb/s
Channel(s) : 6 channels
Channel layout : L R C LFE Ls Rs
Sampling rate : 48.0 kHz
Frame rate : 31.250 FPS (1536 SPF)
Boxing mode : Lossy
Stream size : 587 MiB (3%)
Language : English
Service kind : Complete Main
Duration_Source : General_Duration

 

Top Rank’s fight cards took place on June 9 and June 11 in the Grand Ballroom at the MGM Grand in Las Vegas.

There were no spectators other than those in the room on official business. Here, it might be noted that empty rooms are not uncommon at fights.

When Oscar de La Hoya fought Floyd Mayweather at the MGM Grand Garden Arena in 2007,

there were fourteen paying customers in the stands when the first bout began.

Ring announcer Mark Shonuck performed his duties on June 9 and 11 from outside the ropes.

It was nice to see fighters in the ring without sanctioning body officials jostling with commission personnel

to be on camera while entourage members surround their fighter shouting “you’re the man.” Stitch Duran and Mike Bazzell worked in opposing corners

as cut men for each of the fights except in instances where a fighter’s trainer or assistant trainer doubled as his cut man.

 

Top Rank Boxing 1080i 14 07 2020 Full Show Download

 

 

 

Watch online

 

 

Server 1

 

 

 

 

watch now

 

 

 

 

Server 2

 

 

 

watch now

 

 

 

Server-3

 

 

 

Boxing

 

 

 

Uploaded By Site DX-TV.com

 

 

 

Download with premium account Links 

 

 

nitroflare.com

http://shrt10.com/JBJKD5
http://shrt10.com/xeePG

 

17 GB

rapidgator.net

 

 

uploadgig.com

http://shrt10.com/36A4M
http://shrt10.com/wHWnL

 

 

dx-tv.com

 

urlfree.net

Leave a Reply

Your email address will not be published. Required fields are marked *

This site uses Akismet to reduce spam. Learn how your comment data is processed.