Tokyo Joshi Pro Yes Wonderland 2021 05 04 English DX-TV

Tokyo Joshi Pro Yes Wonderland

 Tokyo Joshi Pro Yes Wonderland

 

 

 

Download Links with premium High Speed


 

Dopapk

 

 

Show Links

 

http://shrt10.com/vAiIg

 

[collapse]

 

 

Nitroflare

 

 

Show Links

 

http://shrt10.com/k2OtzrME

 

[collapse]

 

 

Rapidgator

 

 

Show Links

 

http://shrt10.com/wA618DGH

 

[collapse]

 

 

Uploaded

 

 

Show Links

 

http://shrt10.com/yYyE9C

 

[collapse]

 

 

Watch online

 

Server 1

 

 

 

 

Tokyo Joshi Pro Yes Wonderland

 

 

 

 

Server-2

 

 

 

 

watch now

 

 

 

|Server-3

 

 

 

 

watch now

 

 

Uploaded By Site DX-TV.com

 

 

Show Info This Show

 

 

 

Complete name : Tokyo.Joshi.Pro.2021.05.04.Yes.Wonderland.2021.ENGLISH.WEB.h264-LATE.mkv
Format : Matroska
Format version : Version 4
File size : 2.35 GiB
Duration : 2 h 56 min
Overall bit rate : 1 910 kb/s

Tokyo Joshi Pro Yes Wonderland

Video
ID : 1
Format : AVC
Duration : 2 h 56 min
Bit rate : 1 811 kb/s
Width : 960 pixels
Height : 540 pixels
Display aspect ratio : 16:9
Frame rate mode : Constant
Frame rate : 30.000 FPS
Color space : YUV
Chroma subsampling : 4:2:0
Bit depth : 8 bits
Scan type : Progressive
Bits/(Pixel*Frame) : 0.116
Stream size : 2.23 GiB (95%)
Default : Yes
Forced : No
Color range : Limited
Color primaries : BT.601 PAL
Transfer characteristics : BT.601
Matrix coefficients : BT.470 System B/G

Audio
ID : 2
Format : AAC LC
Format/Info : Advanced Audio
Codec ID : A_AAC-2
Duration : 2 h 56 min
Bit rate : 96.0 kb/s
Channel(s) : 2 channels
Channel layout : L R
Sampling rate : 44.1 kHz
Frame rate : 43.066 FPS
Compression mode : Lossy
Stream size : 121 MiB (5%)
Language : English
Default : Yes
Forced : No

Tokyo Joshi Pro Yes 

Audio
ID : 2
Format : AAC LC
Format/Info : Advanced Audio
Codec ID : A_AAC-2
Duration : 2 h 56 min
Bit rate : 96.0 kb/s
Channel(s) : 2 channels
Channel layout : L R
Sampling rate : 44.1 kHz
Frame rate : 43.066 FPS
Compression mode : Lossy
Stream size : 121 MiB (5%)
Language : English
Default : Yes
Forced : No

 

Audio
ID : 2
Format : AAC LC
Format/Info : Advanced Audio
Codec ID : A_AAC-2
Duration : 2 h 56 min
Bit rate : 96.0 kb/s
Channel(s) : 2 channels
Channel layout : L R
Sampling rate : 44.1 kHz
Frame rate : 43.066 FPS
Compression mode : Lossy
Stream size : 121 MiB (5%)
Language : English
Default : Yes
Forced : No

Tokyo Joshi Pro Yes 

Audio
ID : 2
Format : AAC LC
Format/Info : Advanced Audio
Codec ID : A_AAC-2
Duration : 2 h 56 min
Bit rate : 96.0 kb/s
Channel(s) : 2 channels
Channel layout : L R
Sampling rate : 44.1 kHz
Frame rate : 43.066 FPS
Compression mode : Lossy
Stream size : 121 MiB (5%)
Language : English
Default : Yes
Forced : No

 

Audio
ID : 2
Format : AAC LC
Format/Info : Advanced Audio
Codec ID : A_AAC-2
Duration : 2 h 56 min
Bit rate : 96.0 kb/s
Channel(s) : 2 channels
Channel layout : L R
Sampling rate : 44.1 kHz
Frame rate : 43.066 FPS
Compression mode : Lossy
Stream size : 121 MiB (5%)
Language : English
Default : Yes
Forced : No

Tokyo Joshi Pro Yes 

 

[collapse]

 

 

https://dx-tv.com/

Leave a Reply

Your email address will not be published. Required fields are marked *

This site uses Akismet to reduce spam. Learn how your comment data is processed.

Previous Post
wwe raw talk e1591089395418

Watch WWE Raw Talk 2021 05 03 720p DX-TV

Next Post
NJPW Wrestling Dontaku 2021 Day 2

NJPW Wrestling Dontaku 2021 Day 2 Online Replay Japan