Tokyo Joshi Pro Sprint Tour 21 The Bullet Online Free

Tokyo Joshi Pro Sprint Tour 21 The Bullet 2021 06 19 Online Free Replay DX-TV

Contents show

Tokyo Joshi Pro Sprint Tour 21

 Tokyo Joshi Pro Sprint Tour 21

 

 

 

Download Links with High Speed


 

Dopapk

 

 

Show Links

 

http://shrt10.com/Nc60EL8H
http://shrt10.com/XHLANat

 

[collapse]

 

 

Nitroflare

 

 

Show Links

 

http://shrt10.com/mjWUj
http://shrt10.com/tfGy7RJF
http://shrt10.com/OaEkeZG8

 

[collapse]

 

 

Rapidgator

 

 

Show Links

 

http://shrt10.com/fvGB9Gb
http://shrt10.com/RKjV1c1
http://shrt10.com/y6b2VZ

 

[collapse]

 

 

Uploaded

 

 

Show Links

 

http://shrt10.com/pnMcCoK6x
http://shrt10.com/P62h4w22

 

[collapse]

 

 

Watch online

 

Server 1

 

 

 

 

Tokyo Joshi Pro Sprint Tour 21

 

 

 

 

Server-2

 

 

 

 

watch now

 

 

 

|Server-4

 

 

 

 

watch now

 

 

Uploaded By Site DX-TV.com

 

 

Show Info This Show

 

Tokyo Joshi Pro Sprint Tour 21

Complete name : Tokyo.Joshi.Pro.2021.06.19.Sprint.Tour.21.The.Bullet.WEB.h264-LATE.mkv
Format : Matroska
Format version : Version 4
File size : 1.13 GiB
Duration : 2 h 27 min
Overall bit rate mode : Variable
Overall bit rate : 1 099 kb/s

Video
ID : 1
Format : AVC
Format/Info : Advanced Video
Duration : 2 h 27 min
Bit rate mode : Variable
Bit rate : 971 kb/s
Maximum bit rate : 4 000 kb/s
Width : 960 pixels
Height : 540 pixels
Display aspect ratio : 16:9
Frame rate mode : Constant
Frame rate : 29.970 (30000/1001) FPS
Color space : YUV
Chroma subsampling : 4:2:0
Bit depth : 8 bits
Scan type : Progressive
Bits/(Pixel*Frame) : 0.063
Stream size : 1 024 MiB (88%)
Default : Yes
Forced : No
Color range : Limited
Color primaries : BT.709
Transfer characteristics : BT.709
Matrix coefficients : BT.709

Tokyo Joshi Pro Sprint Tour 21

Audio
ID : 2
Format : AAC LC
Format/Info : Advanced Audio
Codec ID : A_AAC-2
Duration : 2 h 27 min
Bit rate : 125 kb/s
Channel(s) : 2 channels
Channel layout : L R
Sampling rate : 48.0 kHz
Frame rate : 46.875 FPS (1024 SPF)
Compression mode : Lossy
Delay relative to video : -33 ms
Stream size : 132 MiB (11%)
Default : Yes
Forced : No

Complete name : Tokyo.Joshi.Pro.2021.06.19.Sprint.Tour.21.The.Bullet.1080p.WEB.h264-LATE.mkv
Format : Matroska
Format version : Version 4
File size : 6.24 GiB
Duration : 2 h 27 min
Overall bit rate mode : Variable
Overall bit rate : 6 061 kb/s

Tokyo Joshi Pro Sprint Tour 21

Video
ID : 1
Format : AVC
Format/Info : Advanced Video
Duration : 2 h 27 min
Bit rate mode : Variable
Bit rate : 5 677 kb/s
Maximum bit rate : 18.0 Mb/s
Width : 1 920 pixels
Height : 1 080 pixels
Display aspect ratio : 16:9
Frame rate mode : Constant
Frame rate : 29.970 (30000/1001) FPS
Color space : YUV
Chroma subsampling : 4:2:0
Bit depth : 8 bits
Scan type : Progressive
Bits/(Pixel*Frame) : 0.091
Stream size : 5.84 GiB (94%)
Default : Yes
Forced : No
Color range : Limited
Color primaries : BT.709
Transfer characteristics : BT.709
Matrix coefficients : BT.709

Audio
ID : 2
Format : AAC LC
Format/Info : Advanced Audio
Codec ID : A_AAC-2
Duration : 2 h 27 min
Bit rate : 384 kb/s
Channel(s) : 2 channels
Channel layout : L R
Sampling rate : 48.0 kHz
Frame rate : 46.875 FPS
Compression mode : Lossy
Delay relative to video : -33 ms
Stream size : 402 MiB (6%)
Default : Yes
Forced : No

Tokyo Joshi Pro Sprint Tour 21

Complete name : Tokyo.Joshi.Pro.2021.06.19.Sprint.Tour.21.The.Bullet.720p.WEB.h264-LATE.mkv
Format : Matroska
Format version : Version 4
File size : 2.44 GiB
Duration : 2 h 27 min
Overall bit rate mode : Variable
Overall bit rate : 2 371 kb/s

Video
ID : 1
Format : AVC
Format/Info : Advanced Video
Duration : 2 h 27 min
Bit rate mode : Variable
Bit rate : 2 180 kb/s
Maximum bit rate : 8 000 kb/s
Width : 1 280 pixels
Height : 720 pixels
Display aspect ratio : 16:9
Frame rate mode : Constant
Frame rate : 29.970 (30000/1001) FPS
Color space : YUV
Chroma subsampling : 4:2:0
Bit depth : 8 bits
Scan type : Progressive
Bits/(Pixel*Frame) : 0.079
Stream size : 2.24 GiB (92%)
Default : Yes
Forced : No
Color range : Limited
Color primaries : BT.709
Transfer characteristics : BT.709
Matrix coefficients : BT.709

Tokyo Joshi Pro Sprint Tour 21

Audio
ID : 2
Format : AAC LC
Format/Info : Advanced Audio
Codec ID : A_AAC-2
Duration : 2 h 27 min
Bit rate : 192 kb/s
Channel(s) : 2 channels
Channel layout : L R
Sampling rate : 48.0 kHz
Frame rate : 46.875 FPS (1024 SPF)
Compression mode : Lossy
Delay relative to video : -33 ms
Stream size : 200 MiB (8%)
Default : Yes
Forced : No

Tokyo Joshi Pro Sprint Tour 21

 

Complete name : Tokyo.Joshi.Pro.2021.06.19.Sprint.Tour.21.The.Bullet.WEB.h264-LATE.mkv
Format : Matroska
Format version : Version 4
File size : 1.13 GiB
Duration : 2 h 27 min
Overall bit rate mode : Variable
Overall bit rate : 1 099 kb/s

Video
ID : 1
Format : AVC
Format/Info : Advanced Video
Duration : 2 h 27 min
Bit rate mode : Variable
Bit rate : 971 kb/s
Maximum bit rate : 4 000 kb/s
Width : 960 pixels
Height : 540 pixels
Display aspect ratio : 16:9
Frame rate mode : Constant
Frame rate : 29.970 (30000/1001) FPS
Color space : YUV
Chroma subsampling : 4:2:0
Bit depth : 8 bits
Scan type : Progressive
Bits/(Pixel*Frame) : 0.063
Stream size : 1 024 MiB (88%)
Default : Yes
Forced : No
Color range : Limited
Color primaries : BT.709
Transfer characteristics : BT.709
Matrix coefficients : BT.709

Tokyo Joshi Pro Sprint Tour 21

Audio
ID : 2
Format : AAC LC
Format/Info : Advanced Audio
Codec ID : A_AAC-2
Duration : 2 h 27 min
Bit rate : 125 kb/s
Channel(s) : 2 channels
Channel layout : L R
Sampling rate : 48.0 kHz
Frame rate : 46.875 FPS (1024 SPF)
Compression mode : Lossy
Delay relative to video : -33 ms
Stream size : 132 MiB (11%)
Default : Yes
Forced : No

Complete name : Tokyo.Joshi.Pro.2021.06.19.Sprint.Tour.21.The.Bullet.1080p.WEB.h264-LATE.mkv
Format : Matroska
Format version : Version 4
File size : 6.24 GiB
Duration : 2 h 27 min
Overall bit rate mode : Variable
Overall bit rate : 6 061 kb/s

Tokyo Joshi Pro Sprint Tour 21

Video
ID : 1
Format : AVC
Format/Info : Advanced Video
Duration : 2 h 27 min
Bit rate mode : Variable
Bit rate : 5 677 kb/s
Maximum bit rate : 18.0 Mb/s
Width : 1 920 pixels
Height : 1 080 pixels
Display aspect ratio : 16:9
Frame rate mode : Constant
Frame rate : 29.970 (30000/1001) FPS
Color space : YUV
Chroma subsampling : 4:2:0
Bit depth : 8 bits
Scan type : Progressive
Bits/(Pixel*Frame) : 0.091
Stream size : 5.84 GiB (94%)
Default : Yes
Forced : No
Color range : Limited
Color primaries : BT.709
Transfer characteristics : BT.709
Matrix coefficients : BT.709

Audio
ID : 2
Format : AAC LC
Format/Info : Advanced Audio
Codec ID : A_AAC-2
Duration : 2 h 27 min
Bit rate : 384 kb/s
Channel(s) : 2 channels
Channel layout : L R
Sampling rate : 48.0 kHz
Frame rate : 46.875 FPS
Compression mode : Lossy
Delay relative to video : -33 ms
Stream size : 402 MiB (6%)
Default : Yes
Forced : No

Tokyo Joshi Pro Sprint Tour 21

Complete name : Tokyo.Joshi.Pro.2021.06.19.Sprint.Tour.21.The.Bullet.720p.WEB.h264-LATE.mkv
Format : Matroska
Format version : Version 4
File size : 2.44 GiB
Duration : 2 h 27 min
Overall bit rate mode : Variable
Overall bit rate : 2 371 kb/s

Video
ID : 1
Format : AVC
Format/Info : Advanced Video
Duration : 2 h 27 min
Bit rate mode : Variable
Bit rate : 2 180 kb/s
Maximum bit rate : 8 000 kb/s
Width : 1 280 pixels
Height : 720 pixels
Display aspect ratio : 16:9
Frame rate mode : Constant
Frame rate : 29.970 (30000/1001) FPS
Color space : YUV
Chroma subsampling : 4:2:0
Bit depth : 8 bits
Scan type : Progressive
Bits/(Pixel*Frame) : 0.079
Stream size : 2.24 GiB (92%)
Default : Yes
Forced : No
Color range : Limited
Color primaries : BT.709
Transfer characteristics : BT.709
Matrix coefficients : BT.709

Tokyo Joshi Pro Sprint Tour 21

Audio
ID : 2
Format : AAC LC
Format/Info : Advanced Audio
Codec ID : A_AAC-2
Duration : 2 h 27 min
Bit rate : 192 kb/s
Channel(s) : 2 channels
Channel layout : L R
Sampling rate : 48.0 kHz
Frame rate : 46.875 FPS (1024 SPF)
Compression mode : Lossy
Delay relative to video : -33 ms
Stream size : 200 MiB (8%)
Default : Yes
Forced : No

Tokyo Joshi Pro Sprint Tour 21

Complete name : Tokyo.Joshi.Pro.2021.06.19.Sprint.Tour.21.The.Bullet.WEB.h264-LATE.mkv
Format : Matroska
Format version : Version 4
File size : 1.13 GiB
Duration : 2 h 27 min
Overall bit rate mode : Variable
Overall bit rate : 1 099 kb/s

Video
ID : 1
Format : AVC
Format/Info : Advanced Video
Duration : 2 h 27 min
Bit rate mode : Variable
Bit rate : 971 kb/s
Maximum bit rate : 4 000 kb/s
Width : 960 pixels
Height : 540 pixels
Display aspect ratio : 16:9
Frame rate mode : Constant
Frame rate : 29.970 (30000/1001) FPS
Color space : YUV
Chroma subsampling : 4:2:0
Bit depth : 8 bits
Scan type : Progressive
Bits/(Pixel*Frame) : 0.063
Stream size : 1 024 MiB (88%)
Default : Yes
Forced : No
Color range : Limited
Color primaries : BT.709
Transfer characteristics : BT.709
Matrix coefficients : BT.709

Tokyo Joshi Pro Sprint Tour 21

Audio
ID : 2
Format : AAC LC
Format/Info : Advanced Audio
Codec ID : A_AAC-2
Duration : 2 h 27 min
Bit rate : 125 kb/s
Channel(s) : 2 channels
Channel layout : L R
Sampling rate : 48.0 kHz
Frame rate : 46.875 FPS (1024 SPF)
Compression mode : Lossy
Delay relative to video : -33 ms
Stream size : 132 MiB (11%)
Default : Yes
Forced : No

Complete name : Tokyo.Joshi.Pro.2021.06.19.Sprint.Tour.21.The.Bullet.1080p.WEB.h264-LATE.mkv
Format : Matroska
Format version : Version 4
File size : 6.24 GiB
Duration : 2 h 27 min
Overall bit rate mode : Variable
Overall bit rate : 6 061 kb/s

Tokyo Joshi Pro Sprint Tour 21

Video
ID : 1
Format : AVC
Format/Info : Advanced Video
Duration : 2 h 27 min
Bit rate mode : Variable
Bit rate : 5 677 kb/s
Maximum bit rate : 18.0 Mb/s
Width : 1 920 pixels
Height : 1 080 pixels
Display aspect ratio : 16:9
Frame rate mode : Constant
Frame rate : 29.970 (30000/1001) FPS
Color space : YUV
Chroma subsampling : 4:2:0
Bit depth : 8 bits
Scan type : Progressive
Bits/(Pixel*Frame) : 0.091
Stream size : 5.84 GiB (94%)
Default : Yes
Forced : No
Color range : Limited
Color primaries : BT.709
Transfer characteristics : BT.709
Matrix coefficients : BT.709

Audio
ID : 2
Format : AAC LC
Format/Info : Advanced Audio
Codec ID : A_AAC-2
Duration : 2 h 27 min
Bit rate : 384 kb/s
Channel(s) : 2 channels
Channel layout : L R
Sampling rate : 48.0 kHz
Frame rate : 46.875 FPS
Compression mode : Lossy
Delay relative to video : -33 ms
Stream size : 402 MiB (6%)
Default : Yes
Forced : No

Tokyo Joshi Pro Sprint Tour 21

Complete name : Tokyo.Joshi.Pro.2021.06.19.Sprint.Tour.21.The.Bullet.720p.WEB.h264-LATE.mkv
Format : Matroska
Format version : Version 4
File size : 2.44 GiB
Duration : 2 h 27 min
Overall bit rate mode : Variable
Overall bit rate : 2 371 kb/s

Video
ID : 1
Format : AVC
Format/Info : Advanced Video
Duration : 2 h 27 min
Bit rate mode : Variable
Bit rate : 2 180 kb/s
Maximum bit rate : 8 000 kb/s
Width : 1 280 pixels
Height : 720 pixels
Display aspect ratio : 16:9
Frame rate mode : Constant
Frame rate : 29.970 (30000/1001) FPS
Color space : YUV
Chroma subsampling : 4:2:0
Bit depth : 8 bits
Scan type : Progressive
Bits/(Pixel*Frame) : 0.079
Stream size : 2.24 GiB (92%)
Default : Yes
Forced : No
Color range : Limited
Color primaries : BT.709
Transfer characteristics : BT.709
Matrix coefficients : BT.709

Tokyo Joshi Pro Sprint Tour 21

Audio
ID : 2
Format : AAC LC
Format/Info : Advanced Audio
Codec ID : A_AAC-2
Duration : 2 h 27 min
Bit rate : 192 kb/s
Channel(s) : 2 channels
Channel layout : L R
Sampling rate : 48.0 kHz
Frame rate : 46.875 FPS (1024 SPF)
Compression mode : Lossy
Delay relative to video : -33 ms
Stream size : 200 MiB (8%)
Default : Yes
Forced : No

Tokyo Joshi Pro Sprint Tour 21

Complete name : Tokyo.Joshi.Pro.2021.06.19.Sprint.Tour.21.The.Bullet.WEB.h264-LATE.mkv
Format : Matroska
Format version : Version 4
File size : 1.13 GiB
Duration : 2 h 27 min
Overall bit rate mode : Variable
Overall bit rate : 1 099 kb/s

Video
ID : 1
Format : AVC
Format/Info : Advanced Video
Duration : 2 h 27 min
Bit rate mode : Variable
Bit rate : 971 kb/s
Maximum bit rate : 4 000 kb/s
Width : 960 pixels
Height : 540 pixels
Display aspect ratio : 16:9
Frame rate mode : Constant
Frame rate : 29.970 (30000/1001) FPS
Color space : YUV
Chroma subsampling : 4:2:0
Bit depth : 8 bits
Scan type : Progressive
Bits/(Pixel*Frame) : 0.063
Stream size : 1 024 MiB (88%)
Default : Yes
Forced : No
Color range : Limited
Color primaries : BT.709
Transfer characteristics : BT.709
Matrix coefficients : BT.709

Tokyo Joshi Pro Sprint Tour 21

Audio
ID : 2
Format : AAC LC
Format/Info : Advanced Audio
Codec ID : A_AAC-2
Duration : 2 h 27 min
Bit rate : 125 kb/s
Channel(s) : 2 channels
Channel layout : L R
Sampling rate : 48.0 kHz
Frame rate : 46.875 FPS (1024 SPF)
Compression mode : Lossy
Delay relative to video : -33 ms
Stream size : 132 MiB (11%)
Default : Yes
Forced : No

Complete name : Tokyo.Joshi.Pro.2021.06.19.Sprint.Tour.21.The.Bullet.1080p.WEB.h264-LATE.mkv
Format : Matroska
Format version : Version 4
File size : 6.24 GiB
Duration : 2 h 27 min
Overall bit rate mode : Variable
Overall bit rate : 6 061 kb/s

Tokyo Joshi Pro Sprint Tour 21

Video
ID : 1
Format : AVC
Format/Info : Advanced Video
Duration : 2 h 27 min
Bit rate mode : Variable
Bit rate : 5 677 kb/s
Maximum bit rate : 18.0 Mb/s
Width : 1 920 pixels
Height : 1 080 pixels
Display aspect ratio : 16:9
Frame rate mode : Constant
Frame rate : 29.970 (30000/1001) FPS
Color space : YUV
Chroma subsampling : 4:2:0
Bit depth : 8 bits
Scan type : Progressive
Bits/(Pixel*Frame) : 0.091
Stream size : 5.84 GiB (94%)
Default : Yes
Forced : No
Color range : Limited
Color primaries : BT.709
Transfer characteristics : BT.709
Matrix coefficients : BT.709

Audio
ID : 2
Format : AAC LC
Format/Info : Advanced Audio
Codec ID : A_AAC-2
Duration : 2 h 27 min
Bit rate : 384 kb/s
Channel(s) : 2 channels
Channel layout : L R
Sampling rate : 48.0 kHz
Frame rate : 46.875 FPS
Compression mode : Lossy
Delay relative to video : -33 ms
Stream size : 402 MiB (6%)
Default : Yes
Forced : No

Tokyo Joshi Pro Sprint Tour 21

Complete name : Tokyo.Joshi.Pro.2021.06.19.Sprint.Tour.21.The.Bullet.720p.WEB.h264-LATE.mkv
Format : Matroska
Format version : Version 4
File size : 2.44 GiB
Duration : 2 h 27 min
Overall bit rate mode : Variable
Overall bit rate : 2 371 kb/s

Video
ID : 1
Format : AVC
Format/Info : Advanced Video
Duration : 2 h 27 min
Bit rate mode : Variable
Bit rate : 2 180 kb/s
Maximum bit rate : 8 000 kb/s
Width : 1 280 pixels
Height : 720 pixels
Display aspect ratio : 16:9
Frame rate mode : Constant
Frame rate : 29.970 (30000/1001) FPS
Color space : YUV
Chroma subsampling : 4:2:0
Bit depth : 8 bits
Scan type : Progressive
Bits/(Pixel*Frame) : 0.079
Stream size : 2.24 GiB (92%)
Default : Yes
Forced : No
Color range : Limited
Color primaries : BT.709
Transfer characteristics : BT.709
Matrix coefficients : BT.709

Tokyo Joshi Pro Sprint Tour 21

Audio
ID : 2
Format : AAC LC
Format/Info : Advanced Audio
Codec ID : A_AAC-2
Duration : 2 h 27 min
Bit rate : 192 kb/s
Channel(s) : 2 channels
Channel layout : L R
Sampling rate : 48.0 kHz
Frame rate : 46.875 FPS (1024 SPF)
Compression mode : Lossy
Delay relative to video : -33 ms
Stream size : 200 MiB (8%)
Default : Yes
Forced : No

Tokyo Joshi Pro Sprint Tour 21

Complete name : Tokyo.Joshi.Pro.2021.06.19.Sprint.Tour.21.The.Bullet.WEB.h264-LATE.mkv
Format : Matroska
Format version : Version 4
File size : 1.13 GiB
Duration : 2 h 27 min
Overall bit rate mode : Variable
Overall bit rate : 1 099 kb/s

Video
ID : 1
Format : AVC
Format/Info : Advanced Video
Duration : 2 h 27 min
Bit rate mode : Variable
Bit rate : 971 kb/s
Maximum bit rate : 4 000 kb/s
Width : 960 pixels
Height : 540 pixels
Display aspect ratio : 16:9
Frame rate mode : Constant
Frame rate : 29.970 (30000/1001) FPS
Color space : YUV
Chroma subsampling : 4:2:0
Bit depth : 8 bits
Scan type : Progressive
Bits/(Pixel*Frame) : 0.063
Stream size : 1 024 MiB (88%)
Default : Yes
Forced : No
Color range : Limited
Color primaries : BT.709
Transfer characteristics : BT.709
Matrix coefficients : BT.709

Tokyo Joshi Pro Sprint Tour 21

Audio
ID : 2
Format : AAC LC
Format/Info : Advanced Audio
Codec ID : A_AAC-2
Duration : 2 h 27 min
Bit rate : 125 kb/s
Channel(s) : 2 channels
Channel layout : L R
Sampling rate : 48.0 kHz
Frame rate : 46.875 FPS (1024 SPF)
Compression mode : Lossy
Delay relative to video : -33 ms
Stream size : 132 MiB (11%)
Default : Yes
Forced : No

Complete name : Tokyo.Joshi.Pro.2021.06.19.Sprint.Tour.21.The.Bullet.1080p.WEB.h264-LATE.mkv
Format : Matroska
Format version : Version 4
File size : 6.24 GiB
Duration : 2 h 27 min
Overall bit rate mode : Variable
Overall bit rate : 6 061 kb/s

Tokyo Joshi Pro Sprint Tour 21

Video
ID : 1
Format : AVC
Format/Info : Advanced Video
Duration : 2 h 27 min
Bit rate mode : Variable
Bit rate : 5 677 kb/s
Maximum bit rate : 18.0 Mb/s
Width : 1 920 pixels
Height : 1 080 pixels
Display aspect ratio : 16:9
Frame rate mode : Constant
Frame rate : 29.970 (30000/1001) FPS
Color space : YUV
Chroma subsampling : 4:2:0
Bit depth : 8 bits
Scan type : Progressive
Bits/(Pixel*Frame) : 0.091
Stream size : 5.84 GiB (94%)
Default : Yes
Forced : No
Color range : Limited
Color primaries : BT.709
Transfer characteristics : BT.709
Matrix coefficients : BT.709

Audio
ID : 2
Format : AAC LC
Format/Info : Advanced Audio
Codec ID : A_AAC-2
Duration : 2 h 27 min
Bit rate : 384 kb/s
Channel(s) : 2 channels
Channel layout : L R
Sampling rate : 48.0 kHz
Frame rate : 46.875 FPS
Compression mode : Lossy
Delay relative to video : -33 ms
Stream size : 402 MiB (6%)
Default : Yes
Forced : No

Tokyo Joshi Pro Sprint Tour 21

Complete name : Tokyo.Joshi.Pro.2021.06.19.Sprint.Tour.21.The.Bullet.720p.WEB.h264-LATE.mkv
Format : Matroska
Format version : Version 4
File size : 2.44 GiB
Duration : 2 h 27 min
Overall bit rate mode : Variable
Overall bit rate : 2 371 kb/s

Video
ID : 1
Format : AVC
Format/Info : Advanced Video
Duration : 2 h 27 min
Bit rate mode : Variable
Bit rate : 2 180 kb/s
Maximum bit rate : 8 000 kb/s
Width : 1 280 pixels
Height : 720 pixels
Display aspect ratio : 16:9
Frame rate mode : Constant
Frame rate : 29.970 (30000/1001) FPS
Color space : YUV
Chroma subsampling : 4:2:0
Bit depth : 8 bits
Scan type : Progressive
Bits/(Pixel*Frame) : 0.079
Stream size : 2.24 GiB (92%)
Default : Yes
Forced : No
Color range : Limited
Color primaries : BT.709
Transfer characteristics : BT.709
Matrix coefficients : BT.709

Tokyo Joshi Pro Sprint Tour 21

Audio
ID : 2
Format : AAC LC
Format/Info : Advanced Audio
Codec ID : A_AAC-2
Duration : 2 h 27 min
Bit rate : 192 kb/s
Channel(s) : 2 channels
Channel layout : L R
Sampling rate : 48.0 kHz
Frame rate : 46.875 FPS (1024 SPF)
Compression mode : Lossy
Delay relative to video : -33 ms
Stream size : 200 MiB (8%)
Default : Yes
Forced : No

Tokyo Joshi Pro Sprint Tour 21

Complete name : Tokyo.Joshi.Pro.2021.06.19.Sprint.Tour.21.The.Bullet.WEB.h264-LATE.mkv
Format : Matroska
Format version : Version 4
File size : 1.13 GiB
Duration : 2 h 27 min
Overall bit rate mode : Variable
Overall bit rate : 1 099 kb/s

Video
ID : 1
Format : AVC
Format/Info : Advanced Video
Duration : 2 h 27 min
Bit rate mode : Variable
Bit rate : 971 kb/s
Maximum bit rate : 4 000 kb/s
Width : 960 pixels
Height : 540 pixels
Display aspect ratio : 16:9
Frame rate mode : Constant
Frame rate : 29.970 (30000/1001) FPS
Color space : YUV
Chroma subsampling : 4:2:0
Bit depth : 8 bits
Scan type : Progressive
Bits/(Pixel*Frame) : 0.063
Stream size : 1 024 MiB (88%)
Default : Yes
Forced : No
Color range : Limited
Color primaries : BT.709
Transfer characteristics : BT.709
Matrix coefficients : BT.709

Tokyo Joshi Pro Sprint Tour 21

Audio
ID : 2
Format : AAC LC
Format/Info : Advanced Audio
Codec ID : A_AAC-2
Duration : 2 h 27 min
Bit rate : 125 kb/s
Channel(s) : 2 channels
Channel layout : L R
Sampling rate : 48.0 kHz
Frame rate : 46.875 FPS (1024 SPF)
Compression mode : Lossy
Delay relative to video : -33 ms
Stream size : 132 MiB (11%)
Default : Yes
Forced : No

Complete name : Tokyo.Joshi.Pro.2021.06.19.Sprint.Tour.21.The.Bullet.1080p.WEB.h264-LATE.mkv
Format : Matroska
Format version : Version 4
File size : 6.24 GiB
Duration : 2 h 27 min
Overall bit rate mode : Variable
Overall bit rate : 6 061 kb/s

Tokyo Joshi Pro Sprint Tour 21

Video
ID : 1
Format : AVC
Format/Info : Advanced Video
Duration : 2 h 27 min
Bit rate mode : Variable
Bit rate : 5 677 kb/s
Maximum bit rate : 18.0 Mb/s
Width : 1 920 pixels
Height : 1 080 pixels
Display aspect ratio : 16:9
Frame rate mode : Constant
Frame rate : 29.970 (30000/1001) FPS
Color space : YUV
Chroma subsampling : 4:2:0
Bit depth : 8 bits
Scan type : Progressive
Bits/(Pixel*Frame) : 0.091
Stream size : 5.84 GiB (94%)
Default : Yes
Forced : No
Color range : Limited
Color primaries : BT.709
Transfer characteristics : BT.709
Matrix coefficients : BT.709

Audio
ID : 2
Format : AAC LC
Format/Info : Advanced Audio
Codec ID : A_AAC-2
Duration : 2 h 27 min
Bit rate : 384 kb/s
Channel(s) : 2 channels
Channel layout : L R
Sampling rate : 48.0 kHz
Frame rate : 46.875 FPS
Compression mode : Lossy
Delay relative to video : -33 ms
Stream size : 402 MiB (6%)
Default : Yes
Forced : No

Tokyo Joshi Pro Sprint Tour 21

Complete name : Tokyo.Joshi.Pro.2021.06.19.Sprint.Tour.21.The.Bullet.720p.WEB.h264-LATE.mkv
Format : Matroska
Format version : Version 4
File size : 2.44 GiB
Duration : 2 h 27 min
Overall bit rate mode : Variable
Overall bit rate : 2 371 kb/s

Video
ID : 1
Format : AVC
Format/Info : Advanced Video
Duration : 2 h 27 min
Bit rate mode : Variable
Bit rate : 2 180 kb/s
Maximum bit rate : 8 000 kb/s
Width : 1 280 pixels
Height : 720 pixels
Display aspect ratio : 16:9
Frame rate mode : Constant
Frame rate : 29.970 (30000/1001) FPS
Color space : YUV
Chroma subsampling : 4:2:0
Bit depth : 8 bits
Scan type : Progressive
Bits/(Pixel*Frame) : 0.079
Stream size : 2.24 GiB (92%)
Default : Yes
Forced : No
Color range : Limited
Color primaries : BT.709
Transfer characteristics : BT.709
Matrix coefficients : BT.709

Tokyo Joshi Pro Sprint Tour 21

Audio
ID : 2
Format : AAC LC
Format/Info : Advanced Audio
Codec ID : A_AAC-2
Duration : 2 h 27 min
Bit rate : 192 kb/s
Channel(s) : 2 channels
Channel layout : L R
Sampling rate : 48.0 kHz
Frame rate : 46.875 FPS (1024 SPF)
Compression mode : Lossy
Delay relative to video : -33 ms
Stream size : 200 MiB (8%)
Default : Yes
Forced : No

Tokyo Joshi Pro Sprint Tour 21

Complete name : Tokyo.Joshi.Pro.2021.06.19.Sprint.Tour.21.The.Bullet.WEB.h264-LATE.mkv
Format : Matroska
Format version : Version 4
File size : 1.13 GiB
Duration : 2 h 27 min
Overall bit rate mode : Variable
Overall bit rate : 1 099 kb/s

Video
ID : 1
Format : AVC
Format/Info : Advanced Video
Duration : 2 h 27 min
Bit rate mode : Variable
Bit rate : 971 kb/s
Maximum bit rate : 4 000 kb/s
Width : 960 pixels
Height : 540 pixels
Display aspect ratio : 16:9
Frame rate mode : Constant
Frame rate : 29.970 (30000/1001) FPS
Color space : YUV
Chroma subsampling : 4:2:0
Bit depth : 8 bits
Scan type : Progressive
Bits/(Pixel*Frame) : 0.063
Stream size : 1 024 MiB (88%)
Default : Yes
Forced : No
Color range : Limited
Color primaries : BT.709
Transfer characteristics : BT.709
Matrix coefficients : BT.709

Tokyo Joshi Pro Sprint Tour 21

Audio
ID : 2
Format : AAC LC
Format/Info : Advanced Audio
Codec ID : A_AAC-2
Duration : 2 h 27 min
Bit rate : 125 kb/s
Channel(s) : 2 channels
Channel layout : L R
Sampling rate : 48.0 kHz
Frame rate : 46.875 FPS (1024 SPF)
Compression mode : Lossy
Delay relative to video : -33 ms
Stream size : 132 MiB (11%)
Default : Yes
Forced : No

Complete name : Tokyo.Joshi.Pro.2021.06.19.Sprint.Tour.21.The.Bullet.1080p.WEB.h264-LATE.mkv
Format : Matroska
Format version : Version 4
File size : 6.24 GiB
Duration : 2 h 27 min
Overall bit rate mode : Variable
Overall bit rate : 6 061 kb/s

Tokyo Joshi Pro Sprint Tour 21

Video
ID : 1
Format : AVC
Format/Info : Advanced Video
Duration : 2 h 27 min
Bit rate mode : Variable
Bit rate : 5 677 kb/s
Maximum bit rate : 18.0 Mb/s
Width : 1 920 pixels
Height : 1 080 pixels
Display aspect ratio : 16:9
Frame rate mode : Constant
Frame rate : 29.970 (30000/1001) FPS
Color space : YUV
Chroma subsampling : 4:2:0
Bit depth : 8 bits
Scan type : Progressive
Bits/(Pixel*Frame) : 0.091
Stream size : 5.84 GiB (94%)
Default : Yes
Forced : No
Color range : Limited
Color primaries : BT.709
Transfer characteristics : BT.709
Matrix coefficients : BT.709

Audio
ID : 2
Format : AAC LC
Format/Info : Advanced Audio
Codec ID : A_AAC-2
Duration : 2 h 27 min
Bit rate : 384 kb/s
Channel(s) : 2 channels
Channel layout : L R
Sampling rate : 48.0 kHz
Frame rate : 46.875 FPS
Compression mode : Lossy
Delay relative to video : -33 ms
Stream size : 402 MiB (6%)
Default : Yes
Forced : No

Tokyo Joshi Pro Sprint Tour 21

Complete name : Tokyo.Joshi.Pro.2021.06.19.Sprint.Tour.21.The.Bullet.720p.WEB.h264-LATE.mkv
Format : Matroska
Format version : Version 4
File size : 2.44 GiB
Duration : 2 h 27 min
Overall bit rate mode : Variable
Overall bit rate : 2 371 kb/s

Video
ID : 1
Format : AVC
Format/Info : Advanced Video
Duration : 2 h 27 min
Bit rate mode : Variable
Bit rate : 2 180 kb/s
Maximum bit rate : 8 000 kb/s
Width : 1 280 pixels
Height : 720 pixels
Display aspect ratio : 16:9
Frame rate mode : Constant
Frame rate : 29.970 (30000/1001) FPS
Color space : YUV
Chroma subsampling : 4:2:0
Bit depth : 8 bits
Scan type : Progressive
Bits/(Pixel*Frame) : 0.079
Stream size : 2.24 GiB (92%)
Default : Yes
Forced : No
Color range : Limited
Color primaries : BT.709
Transfer characteristics : BT.709
Matrix coefficients : BT.709

Tokyo Joshi Pro Sprint Tour 21

Audio
ID : 2
Format : AAC LC
Format/Info : Advanced Audio
Codec ID : A_AAC-2
Duration : 2 h 27 min
Bit rate : 192 kb/s
Channel(s) : 2 channels
Channel layout : L R
Sampling rate : 48.0 kHz
Frame rate : 46.875 FPS (1024 SPF)
Compression mode : Lossy
Delay relative to video : -33 ms
Stream size : 200 MiB (8%)
Default : Yes
Forced : No

Tokyo Joshi Pro Sprint Tour 21

 

[collapse]

 

 

https://dx-tv.com/

Leave a Reply

Your email address will not be published. Required fields are marked *

This site uses Akismet to reduce spam. Learn how your comment data is processed.