TJPW Stand Proud 2021 06 26 1080p Online Free

TJPW Stand Proud 2021 06 26 1080p Online Free Replay DX-TV

TJPW Stand Proud

 TJPW Stand Proud

 

 

 

Download Links with High Speed


 

Dopapk

 

 

Show Links

 

http://shrt10.com/gpsXeRwJ5
http://shrt10.com/w1fBExa
http://shrt10.com/hg7i2GDc

 

[collapse]

 

 

Nitroflare

 

 

Show Links

 

http://shrt10.com/kCnrc
http://shrt10.com/4zOpwgL
http://shrt10.com/9yWdJX

 

[collapse]

 

 

Rapidgator

 

 

Show Links

 

http://shrt10.com/bxvYM15c
http://shrt10.com/hJ9R3vX
http://shrt10.com/VPJce

 

[collapse]

 

 

Uploaded

 

 

Show Links

 

http://shrt10.com/QwkGF
http://shrt10.com/8lRW58

 

[collapse]

 

 

Watch online

 

Server 1

 

 

 

 

TJPW Stand Proud

 

 

 

 

Server-2

 

 

 

 

watch now

 

 

 

|Server-4

 

 

 

 

watch now

 

 

Uploaded By Site DX-TV.com

 

 

Show Info This Show

TJPW Stand Proud

 

Complete name : Tokyo.Joshi.Pro.2021.06.26.Stand.Proud.720p.WEB.h264-LATE.mkv
Format : Matroska
Format version : Version 4
File size : 3.40 GiB
Duration : 3 h 7 min
Overall bit rate mode : Variable

Video
ID : 1
Format : AVC
Format/Info : Advanced Video
Duration : 3 h 7 min
Bit rate mode : Variable
Bit rate : 2 399 kb/s
Maximum bit rate : 8 000 kb/s
Width : 1 280 pixels
Height : 720 pixels
Display aspect ratio : 16:9
Frame rate mode : Constant
Frame rate : 29.970 (30000/1001) FPS
Color space : YUV
Chroma subsampling : 4:2:0
Bit depth : 8 bits
Scan type : Progressive
Bits/(Pixel*Frame) : 0.087
Stream size : 3.14 GiB (93%)
Default : Yes
Forced : No
Color range : Limited
Color primaries : BT.709
Transfer characteristics : BT.709
Matrix coefficients : BT.709

TJPW Stand Proud

Audio
ID : 2
Format : AAC LC
Format/Info : Advanced Audio
Codec ID : A_AAC-2
Duration : 3 h 7 min
Bit rate : 192 kb/s
Channel(s) : 2 channels
Channel layout : L R
Sampling rate : 48.0 kHz
Compression mode : Lossy
Delay relative to video : -33 ms
Stream size : 254 MiB (7%)
Default : Yes
Forced : No

Complete name : Tokyo.Joshi.Pro.2021.06.26.Stand.Proud.1080p.WEB.h264-LATE.mkv
Format : Matroska
Format version : Version 4
File size : 7.95 GiB
Duration : 3 h 7 min
Overall bit rate mode : Variable
Overall bit rate : 6 062 kb/s

TJPW Stand Proud

Video
ID : 1
Format : AVC
Format/Info : Advanced Video
Duration : 3 h 7 min
Bit rate mode : Variable
Bit rate : 5 678 kb/s
Maximum bit rate : 18.0 Mb/s
Width : 1 920 pixels
Height : 1 080 pixels
Display aspect ratio : 16:9
Frame rate mode : Constant
Frame rate : 29.970 (30000/1001) FPS
Color space : YUV
Chroma subsampling : 4:2:0
Bit depth : 8 bits
Scan type : Progressive
Bits/(Pixel*Frame) : 0.091
Stream size : 7.44 GiB (94%)
Default : Yes
Forced : No
Color range : Limited
Color primaries : BT.709
Transfer characteristics : BT.709
Matrix coefficients : BT.709

TJPW Stand Proud

Audio
ID : 2
Format : AAC LC
Format/Info : Advanced Audio
Codec ID : A_AAC-2
Duration : 3 h 7 min
Bit rate : 384 kb/s
Channel(s) : 2 channels
Channel layout : L R
Sampling rate : 48.0 kHz
Frame rate : 46.875 FPS
Compression mode : Lossy
Delay relative to video : -33 ms
Stream size : 512 MiB (6%)
Default : Yes
Forced : No

Complete name : Tokyo.Joshi.Pro.2021.06.26.Stand.Proud.WEB.h264-LATE.mkv
Format : Matroska
Format version : Version 4
File size : 1.56 GiB
Duration : 3 h 7 min
Overall bit rate mode : Variable
Overall bit rate : 1 193 kb/s

TJPW Stand Proud

Video
ID : 1
Format : AVC
Format/Info : Advanced Video
Duration : 3 h 7 min
Bit rate mode : Variable
Bit rate : 1 065 kb/s
Maximum bit rate : 4 000 kb/s
Width : 960 pixels
Height : 540 pixels
Display aspect ratio : 16:9
Frame rate mode : Constant
Frame rate : 29.970 (30000/1001) FPS
Color space : YUV
Chroma subsampling : 4:2:0
Bit depth : 8 bits
Scan type : Progressive
Bits/(Pixel*Frame) : 0.069
Stream size : 1.40 GiB (89%)
Default : Yes
Forced : No
Color range : Limited
Color primaries : BT.709
Transfer characteristics : BT.709
Matrix coefficients : BT.709

TJPW Stand Proud

Audio
ID : 2
Format : AAC LC
Format/Info : Advanced Audio
Codec ID : A_AAC-2
Duration : 3 h 7 min
Bit rate : 125 kb/s
Channel(s) : 2 channels
Channel layout : L R
Sampling rate : 48.0 kHz
Frame rate : 46.875 FPS (1024 SPF)
Compression mode : Lossy
Delay relative to video : -33 ms
Stream size : 168 MiB (11%)
Default : Yes
Forced : No

TJPW Stand Proud

Complete name : Tokyo.Joshi.Pro.2021.06.26.Stand.Proud.720p.WEB.h264-LATE.mkv
Format : Matroska
Format version : Version 4
File size : 3.40 GiB
Duration : 3 h 7 min
Overall bit rate mode : Variable

Video
ID : 1
Format : AVC
Format/Info : Advanced Video
Duration : 3 h 7 min
Bit rate mode : Variable
Bit rate : 2 399 kb/s
Maximum bit rate : 8 000 kb/s
Width : 1 280 pixels
Height : 720 pixels
Display aspect ratio : 16:9
Frame rate mode : Constant
Frame rate : 29.970 (30000/1001) FPS
Color space : YUV
Chroma subsampling : 4:2:0
Bit depth : 8 bits
Scan type : Progressive
Bits/(Pixel*Frame) : 0.087
Stream size : 3.14 GiB (93%)
Default : Yes
Forced : No
Color range : Limited
Color primaries : BT.709
Transfer characteristics : BT.709
Matrix coefficients : BT.709

TJPW Stand Proud

Audio
ID : 2
Format : AAC LC
Format/Info : Advanced Audio
Codec ID : A_AAC-2
Duration : 3 h 7 min
Bit rate : 192 kb/s
Channel(s) : 2 channels
Channel layout : L R
Sampling rate : 48.0 kHz
Compression mode : Lossy
Delay relative to video : -33 ms
Stream size : 254 MiB (7%)
Default : Yes
Forced : No

Complete name : Tokyo.Joshi.Pro.2021.06.26.Stand.Proud.1080p.WEB.h264-LATE.mkv
Format : Matroska
Format version : Version 4
File size : 7.95 GiB
Duration : 3 h 7 min
Overall bit rate mode : Variable
Overall bit rate : 6 062 kb/s

TJPW Stand Proud

Video
ID : 1
Format : AVC
Format/Info : Advanced Video
Duration : 3 h 7 min
Bit rate mode : Variable
Bit rate : 5 678 kb/s
Maximum bit rate : 18.0 Mb/s
Width : 1 920 pixels
Height : 1 080 pixels
Display aspect ratio : 16:9
Frame rate mode : Constant
Frame rate : 29.970 (30000/1001) FPS
Color space : YUV
Chroma subsampling : 4:2:0
Bit depth : 8 bits
Scan type : Progressive
Bits/(Pixel*Frame) : 0.091
Stream size : 7.44 GiB (94%)
Default : Yes
Forced : No
Color range : Limited
Color primaries : BT.709
Transfer characteristics : BT.709
Matrix coefficients : BT.709

TJPW Stand Proud

Audio
ID : 2
Format : AAC LC
Format/Info : Advanced Audio
Codec ID : A_AAC-2
Duration : 3 h 7 min
Bit rate : 384 kb/s
Channel(s) : 2 channels
Channel layout : L R
Sampling rate : 48.0 kHz
Frame rate : 46.875 FPS
Compression mode : Lossy
Delay relative to video : -33 ms
Stream size : 512 MiB (6%)
Default : Yes
Forced : No

Complete name : Tokyo.Joshi.Pro.2021.06.26.Stand.Proud.WEB.h264-LATE.mkv
Format : Matroska
Format version : Version 4
File size : 1.56 GiB
Duration : 3 h 7 min
Overall bit rate mode : Variable
Overall bit rate : 1 193 kb/s

TJPW Stand Proud

Video
ID : 1
Format : AVC
Format/Info : Advanced Video
Duration : 3 h 7 min
Bit rate mode : Variable
Bit rate : 1 065 kb/s
Maximum bit rate : 4 000 kb/s
Width : 960 pixels
Height : 540 pixels
Display aspect ratio : 16:9
Frame rate mode : Constant
Frame rate : 29.970 (30000/1001) FPS
Color space : YUV
Chroma subsampling : 4:2:0
Bit depth : 8 bits
Scan type : Progressive
Bits/(Pixel*Frame) : 0.069
Stream size : 1.40 GiB (89%)
Default : Yes
Forced : No
Color range : Limited
Color primaries : BT.709
Transfer characteristics : BT.709
Matrix coefficients : BT.709

TJPW Stand Proud

Audio
ID : 2
Format : AAC LC
Format/Info : Advanced Audio
Codec ID : A_AAC-2
Duration : 3 h 7 min
Bit rate : 125 kb/s
Channel(s) : 2 channels
Channel layout : L R
Sampling rate : 48.0 kHz
Frame rate : 46.875 FPS (1024 SPF)
Compression mode : Lossy
Delay relative to video : -33 ms
Stream size : 168 MiB (11%)
Default : Yes
Forced : No

TJPW Stand Proud

Complete name : Tokyo.Joshi.Pro.2021.06.26.Stand.Proud.720p.WEB.h264-LATE.mkv
Format : Matroska
Format version : Version 4
File size : 3.40 GiB
Duration : 3 h 7 min
Overall bit rate mode : Variable

Video
ID : 1
Format : AVC
Format/Info : Advanced Video
Duration : 3 h 7 min
Bit rate mode : Variable
Bit rate : 2 399 kb/s
Maximum bit rate : 8 000 kb/s
Width : 1 280 pixels
Height : 720 pixels
Display aspect ratio : 16:9
Frame rate mode : Constant
Frame rate : 29.970 (30000/1001) FPS
Color space : YUV
Chroma subsampling : 4:2:0
Bit depth : 8 bits
Scan type : Progressive
Bits/(Pixel*Frame) : 0.087
Stream size : 3.14 GiB (93%)
Default : Yes
Forced : No
Color range : Limited
Color primaries : BT.709
Transfer characteristics : BT.709
Matrix coefficients : BT.709

TJPW Stand Proud

Audio
ID : 2
Format : AAC LC
Format/Info : Advanced Audio
Codec ID : A_AAC-2
Duration : 3 h 7 min
Bit rate : 192 kb/s
Channel(s) : 2 channels
Channel layout : L R
Sampling rate : 48.0 kHz
Compression mode : Lossy
Delay relative to video : -33 ms
Stream size : 254 MiB (7%)
Default : Yes
Forced : No

Complete name : Tokyo.Joshi.Pro.2021.06.26.Stand.Proud.1080p.WEB.h264-LATE.mkv
Format : Matroska
Format version : Version 4
File size : 7.95 GiB
Duration : 3 h 7 min
Overall bit rate mode : Variable
Overall bit rate : 6 062 kb/s

TJPW Stand Proud

Video
ID : 1
Format : AVC
Format/Info : Advanced Video
Duration : 3 h 7 min
Bit rate mode : Variable
Bit rate : 5 678 kb/s
Maximum bit rate : 18.0 Mb/s
Width : 1 920 pixels
Height : 1 080 pixels
Display aspect ratio : 16:9
Frame rate mode : Constant
Frame rate : 29.970 (30000/1001) FPS
Color space : YUV
Chroma subsampling : 4:2:0
Bit depth : 8 bits
Scan type : Progressive
Bits/(Pixel*Frame) : 0.091
Stream size : 7.44 GiB (94%)
Default : Yes
Forced : No
Color range : Limited
Color primaries : BT.709
Transfer characteristics : BT.709
Matrix coefficients : BT.709

TJPW Stand Proud

Audio
ID : 2
Format : AAC LC
Format/Info : Advanced Audio
Codec ID : A_AAC-2
Duration : 3 h 7 min
Bit rate : 384 kb/s
Channel(s) : 2 channels
Channel layout : L R
Sampling rate : 48.0 kHz
Frame rate : 46.875 FPS
Compression mode : Lossy
Delay relative to video : -33 ms
Stream size : 512 MiB (6%)
Default : Yes
Forced : No

Complete name : Tokyo.Joshi.Pro.2021.06.26.Stand.Proud.WEB.h264-LATE.mkv
Format : Matroska
Format version : Version 4
File size : 1.56 GiB
Duration : 3 h 7 min
Overall bit rate mode : Variable
Overall bit rate : 1 193 kb/s

TJPW Stand Proud

Video
ID : 1
Format : AVC
Format/Info : Advanced Video
Duration : 3 h 7 min
Bit rate mode : Variable
Bit rate : 1 065 kb/s
Maximum bit rate : 4 000 kb/s
Width : 960 pixels
Height : 540 pixels
Display aspect ratio : 16:9
Frame rate mode : Constant
Frame rate : 29.970 (30000/1001) FPS
Color space : YUV
Chroma subsampling : 4:2:0
Bit depth : 8 bits
Scan type : Progressive
Bits/(Pixel*Frame) : 0.069
Stream size : 1.40 GiB (89%)
Default : Yes
Forced : No
Color range : Limited
Color primaries : BT.709
Transfer characteristics : BT.709
Matrix coefficients : BT.709

TJPW Stand Proud

Audio
ID : 2
Format : AAC LC
Format/Info : Advanced Audio
Codec ID : A_AAC-2
Duration : 3 h 7 min
Bit rate : 125 kb/s
Channel(s) : 2 channels
Channel layout : L R
Sampling rate : 48.0 kHz
Frame rate : 46.875 FPS (1024 SPF)
Compression mode : Lossy
Delay relative to video : -33 ms
Stream size : 168 MiB (11%)
Default : Yes
Forced : No

TJPW Stand Proud

Complete name : Tokyo.Joshi.Pro.2021.06.26.Stand.Proud.720p.WEB.h264-LATE.mkv
Format : Matroska
Format version : Version 4
File size : 3.40 GiB
Duration : 3 h 7 min
Overall bit rate mode : Variable

Video
ID : 1
Format : AVC
Format/Info : Advanced Video
Duration : 3 h 7 min
Bit rate mode : Variable
Bit rate : 2 399 kb/s
Maximum bit rate : 8 000 kb/s
Width : 1 280 pixels
Height : 720 pixels
Display aspect ratio : 16:9
Frame rate mode : Constant
Frame rate : 29.970 (30000/1001) FPS
Color space : YUV
Chroma subsampling : 4:2:0
Bit depth : 8 bits
Scan type : Progressive
Bits/(Pixel*Frame) : 0.087
Stream size : 3.14 GiB (93%)
Default : Yes
Forced : No
Color range : Limited
Color primaries : BT.709
Transfer characteristics : BT.709
Matrix coefficients : BT.709

TJPW Stand Proud

Audio
ID : 2
Format : AAC LC
Format/Info : Advanced Audio
Codec ID : A_AAC-2
Duration : 3 h 7 min
Bit rate : 192 kb/s
Channel(s) : 2 channels
Channel layout : L R
Sampling rate : 48.0 kHz
Compression mode : Lossy
Delay relative to video : -33 ms
Stream size : 254 MiB (7%)
Default : Yes
Forced : No

Complete name : Tokyo.Joshi.Pro.2021.06.26.Stand.Proud.1080p.WEB.h264-LATE.mkv
Format : Matroska
Format version : Version 4
File size : 7.95 GiB
Duration : 3 h 7 min
Overall bit rate mode : Variable
Overall bit rate : 6 062 kb/s

TJPW Stand Proud

Video
ID : 1
Format : AVC
Format/Info : Advanced Video
Duration : 3 h 7 min
Bit rate mode : Variable
Bit rate : 5 678 kb/s
Maximum bit rate : 18.0 Mb/s
Width : 1 920 pixels
Height : 1 080 pixels
Display aspect ratio : 16:9
Frame rate mode : Constant
Frame rate : 29.970 (30000/1001) FPS
Color space : YUV
Chroma subsampling : 4:2:0
Bit depth : 8 bits
Scan type : Progressive
Bits/(Pixel*Frame) : 0.091
Stream size : 7.44 GiB (94%)
Default : Yes
Forced : No
Color range : Limited
Color primaries : BT.709
Transfer characteristics : BT.709
Matrix coefficients : BT.709

TJPW Stand Proud

Audio
ID : 2
Format : AAC LC
Format/Info : Advanced Audio
Codec ID : A_AAC-2
Duration : 3 h 7 min
Bit rate : 384 kb/s
Channel(s) : 2 channels
Channel layout : L R
Sampling rate : 48.0 kHz
Frame rate : 46.875 FPS
Compression mode : Lossy
Delay relative to video : -33 ms
Stream size : 512 MiB (6%)
Default : Yes
Forced : No

Complete name : Tokyo.Joshi.Pro.2021.06.26.Stand.Proud.WEB.h264-LATE.mkv
Format : Matroska
Format version : Version 4
File size : 1.56 GiB
Duration : 3 h 7 min
Overall bit rate mode : Variable
Overall bit rate : 1 193 kb/s

TJPW Stand Proud

Video
ID : 1
Format : AVC
Format/Info : Advanced Video
Duration : 3 h 7 min
Bit rate mode : Variable
Bit rate : 1 065 kb/s
Maximum bit rate : 4 000 kb/s
Width : 960 pixels
Height : 540 pixels
Display aspect ratio : 16:9
Frame rate mode : Constant
Frame rate : 29.970 (30000/1001) FPS
Color space : YUV
Chroma subsampling : 4:2:0
Bit depth : 8 bits
Scan type : Progressive
Bits/(Pixel*Frame) : 0.069
Stream size : 1.40 GiB (89%)
Default : Yes
Forced : No
Color range : Limited
Color primaries : BT.709
Transfer characteristics : BT.709
Matrix coefficients : BT.709

TJPW Stand Proud

Audio
ID : 2
Format : AAC LC
Format/Info : Advanced Audio
Codec ID : A_AAC-2
Duration : 3 h 7 min
Bit rate : 125 kb/s
Channel(s) : 2 channels
Channel layout : L R
Sampling rate : 48.0 kHz
Frame rate : 46.875 FPS (1024 SPF)
Compression mode : Lossy
Delay relative to video : -33 ms
Stream size : 168 MiB (11%)
Default : Yes
Forced : No

TJPW Stand Proud

Complete name : Tokyo.Joshi.Pro.2021.06.26.Stand.Proud.720p.WEB.h264-LATE.mkv
Format : Matroska
Format version : Version 4
File size : 3.40 GiB
Duration : 3 h 7 min
Overall bit rate mode : Variable

Video
ID : 1
Format : AVC
Format/Info : Advanced Video
Duration : 3 h 7 min
Bit rate mode : Variable
Bit rate : 2 399 kb/s
Maximum bit rate : 8 000 kb/s
Width : 1 280 pixels
Height : 720 pixels
Display aspect ratio : 16:9
Frame rate mode : Constant
Frame rate : 29.970 (30000/1001) FPS
Color space : YUV
Chroma subsampling : 4:2:0
Bit depth : 8 bits
Scan type : Progressive
Bits/(Pixel*Frame) : 0.087
Stream size : 3.14 GiB (93%)
Default : Yes
Forced : No
Color range : Limited
Color primaries : BT.709
Transfer characteristics : BT.709
Matrix coefficients : BT.709

TJPW Stand Proud

Audio
ID : 2
Format : AAC LC
Format/Info : Advanced Audio
Codec ID : A_AAC-2
Duration : 3 h 7 min
Bit rate : 192 kb/s
Channel(s) : 2 channels
Channel layout : L R
Sampling rate : 48.0 kHz
Compression mode : Lossy
Delay relative to video : -33 ms
Stream size : 254 MiB (7%)
Default : Yes
Forced : No

Complete name : Tokyo.Joshi.Pro.2021.06.26.Stand.Proud.1080p.WEB.h264-LATE.mkv
Format : Matroska
Format version : Version 4
File size : 7.95 GiB
Duration : 3 h 7 min
Overall bit rate mode : Variable
Overall bit rate : 6 062 kb/s

TJPW Stand Proud

Video
ID : 1
Format : AVC
Format/Info : Advanced Video
Duration : 3 h 7 min
Bit rate mode : Variable
Bit rate : 5 678 kb/s
Maximum bit rate : 18.0 Mb/s
Width : 1 920 pixels
Height : 1 080 pixels
Display aspect ratio : 16:9
Frame rate mode : Constant
Frame rate : 29.970 (30000/1001) FPS
Color space : YUV
Chroma subsampling : 4:2:0
Bit depth : 8 bits
Scan type : Progressive
Bits/(Pixel*Frame) : 0.091
Stream size : 7.44 GiB (94%)
Default : Yes
Forced : No
Color range : Limited
Color primaries : BT.709
Transfer characteristics : BT.709
Matrix coefficients : BT.709

TJPW Stand Proud

Audio
ID : 2
Format : AAC LC
Format/Info : Advanced Audio
Codec ID : A_AAC-2
Duration : 3 h 7 min
Bit rate : 384 kb/s
Channel(s) : 2 channels
Channel layout : L R
Sampling rate : 48.0 kHz
Frame rate : 46.875 FPS
Compression mode : Lossy
Delay relative to video : -33 ms
Stream size : 512 MiB (6%)
Default : Yes
Forced : No

Complete name : Tokyo.Joshi.Pro.2021.06.26.Stand.Proud.WEB.h264-LATE.mkv
Format : Matroska
Format version : Version 4
File size : 1.56 GiB
Duration : 3 h 7 min
Overall bit rate mode : Variable
Overall bit rate : 1 193 kb/s

TJPW Stand Proud

Video
ID : 1
Format : AVC
Format/Info : Advanced Video
Duration : 3 h 7 min
Bit rate mode : Variable
Bit rate : 1 065 kb/s
Maximum bit rate : 4 000 kb/s
Width : 960 pixels
Height : 540 pixels
Display aspect ratio : 16:9
Frame rate mode : Constant
Frame rate : 29.970 (30000/1001) FPS
Color space : YUV
Chroma subsampling : 4:2:0
Bit depth : 8 bits
Scan type : Progressive
Bits/(Pixel*Frame) : 0.069
Stream size : 1.40 GiB (89%)
Default : Yes
Forced : No
Color range : Limited
Color primaries : BT.709
Transfer characteristics : BT.709
Matrix coefficients : BT.709

TJPW Stand Proud

Audio
ID : 2
Format : AAC LC
Format/Info : Advanced Audio
Codec ID : A_AAC-2
Duration : 3 h 7 min
Bit rate : 125 kb/s
Channel(s) : 2 channels
Channel layout : L R
Sampling rate : 48.0 kHz
Frame rate : 46.875 FPS (1024 SPF)
Compression mode : Lossy
Delay relative to video : -33 ms
Stream size : 168 MiB (11%)
Default : Yes
Forced : No

TJPW Stand Proud

Complete name : Tokyo.Joshi.Pro.2021.06.26.Stand.Proud.720p.WEB.h264-LATE.mkv
Format : Matroska
Format version : Version 4
File size : 3.40 GiB
Duration : 3 h 7 min
Overall bit rate mode : Variable

Video
ID : 1
Format : AVC
Format/Info : Advanced Video
Duration : 3 h 7 min
Bit rate mode : Variable
Bit rate : 2 399 kb/s
Maximum bit rate : 8 000 kb/s
Width : 1 280 pixels
Height : 720 pixels
Display aspect ratio : 16:9
Frame rate mode : Constant
Frame rate : 29.970 (30000/1001) FPS
Color space : YUV
Chroma subsampling : 4:2:0
Bit depth : 8 bits
Scan type : Progressive
Bits/(Pixel*Frame) : 0.087
Stream size : 3.14 GiB (93%)
Default : Yes
Forced : No
Color range : Limited
Color primaries : BT.709
Transfer characteristics : BT.709
Matrix coefficients : BT.709

TJPW Stand Proud

Audio
ID : 2
Format : AAC LC
Format/Info : Advanced Audio
Codec ID : A_AAC-2
Duration : 3 h 7 min
Bit rate : 192 kb/s
Channel(s) : 2 channels
Channel layout : L R
Sampling rate : 48.0 kHz
Compression mode : Lossy
Delay relative to video : -33 ms
Stream size : 254 MiB (7%)
Default : Yes
Forced : No

Complete name : Tokyo.Joshi.Pro.2021.06.26.Stand.Proud.1080p.WEB.h264-LATE.mkv
Format : Matroska
Format version : Version 4
File size : 7.95 GiB
Duration : 3 h 7 min
Overall bit rate mode : Variable
Overall bit rate : 6 062 kb/s

TJPW Stand Proud

Video
ID : 1
Format : AVC
Format/Info : Advanced Video
Duration : 3 h 7 min
Bit rate mode : Variable
Bit rate : 5 678 kb/s
Maximum bit rate : 18.0 Mb/s
Width : 1 920 pixels
Height : 1 080 pixels
Display aspect ratio : 16:9
Frame rate mode : Constant
Frame rate : 29.970 (30000/1001) FPS
Color space : YUV
Chroma subsampling : 4:2:0
Bit depth : 8 bits
Scan type : Progressive
Bits/(Pixel*Frame) : 0.091
Stream size : 7.44 GiB (94%)
Default : Yes
Forced : No
Color range : Limited
Color primaries : BT.709
Transfer characteristics : BT.709
Matrix coefficients : BT.709

TJPW Stand Proud

Audio
ID : 2
Format : AAC LC
Format/Info : Advanced Audio
Codec ID : A_AAC-2
Duration : 3 h 7 min
Bit rate : 384 kb/s
Channel(s) : 2 channels
Channel layout : L R
Sampling rate : 48.0 kHz
Frame rate : 46.875 FPS
Compression mode : Lossy
Delay relative to video : -33 ms
Stream size : 512 MiB (6%)
Default : Yes
Forced : No

Complete name : Tokyo.Joshi.Pro.2021.06.26.Stand.Proud.WEB.h264-LATE.mkv
Format : Matroska
Format version : Version 4
File size : 1.56 GiB
Duration : 3 h 7 min
Overall bit rate mode : Variable
Overall bit rate : 1 193 kb/s

TJPW Stand Proud

Video
ID : 1
Format : AVC
Format/Info : Advanced Video
Duration : 3 h 7 min
Bit rate mode : Variable
Bit rate : 1 065 kb/s
Maximum bit rate : 4 000 kb/s
Width : 960 pixels
Height : 540 pixels
Display aspect ratio : 16:9
Frame rate mode : Constant
Frame rate : 29.970 (30000/1001) FPS
Color space : YUV
Chroma subsampling : 4:2:0
Bit depth : 8 bits
Scan type : Progressive
Bits/(Pixel*Frame) : 0.069
Stream size : 1.40 GiB (89%)
Default : Yes
Forced : No
Color range : Limited
Color primaries : BT.709
Transfer characteristics : BT.709
Matrix coefficients : BT.709

TJPW Stand Proud

Audio
ID : 2
Format : AAC LC
Format/Info : Advanced Audio
Codec ID : A_AAC-2
Duration : 3 h 7 min
Bit rate : 125 kb/s
Channel(s) : 2 channels
Channel layout : L R
Sampling rate : 48.0 kHz
Frame rate : 46.875 FPS (1024 SPF)
Compression mode : Lossy
Delay relative to video : -33 ms
Stream size : 168 MiB (11%)
Default : Yes
Forced : No

TJPW Stand Proud

Complete name : Tokyo.Joshi.Pro.2021.06.26.Stand.Proud.720p.WEB.h264-LATE.mkv
Format : Matroska
Format version : Version 4
File size : 3.40 GiB
Duration : 3 h 7 min
Overall bit rate mode : Variable

Video
ID : 1
Format : AVC
Format/Info : Advanced Video
Duration : 3 h 7 min
Bit rate mode : Variable
Bit rate : 2 399 kb/s
Maximum bit rate : 8 000 kb/s
Width : 1 280 pixels
Height : 720 pixels
Display aspect ratio : 16:9
Frame rate mode : Constant
Frame rate : 29.970 (30000/1001) FPS
Color space : YUV
Chroma subsampling : 4:2:0
Bit depth : 8 bits
Scan type : Progressive
Bits/(Pixel*Frame) : 0.087
Stream size : 3.14 GiB (93%)
Default : Yes
Forced : No
Color range : Limited
Color primaries : BT.709
Transfer characteristics : BT.709
Matrix coefficients : BT.709

TJPW Stand Proud

Audio
ID : 2
Format : AAC LC
Format/Info : Advanced Audio
Codec ID : A_AAC-2
Duration : 3 h 7 min
Bit rate : 192 kb/s
Channel(s) : 2 channels
Channel layout : L R
Sampling rate : 48.0 kHz
Compression mode : Lossy
Delay relative to video : -33 ms
Stream size : 254 MiB (7%)
Default : Yes
Forced : No

Complete name : Tokyo.Joshi.Pro.2021.06.26.Stand.Proud.1080p.WEB.h264-LATE.mkv
Format : Matroska
Format version : Version 4
File size : 7.95 GiB
Duration : 3 h 7 min
Overall bit rate mode : Variable
Overall bit rate : 6 062 kb/s

TJPW Stand Proud

Video
ID : 1
Format : AVC
Format/Info : Advanced Video
Duration : 3 h 7 min
Bit rate mode : Variable
Bit rate : 5 678 kb/s
Maximum bit rate : 18.0 Mb/s
Width : 1 920 pixels
Height : 1 080 pixels
Display aspect ratio : 16:9
Frame rate mode : Constant
Frame rate : 29.970 (30000/1001) FPS
Color space : YUV
Chroma subsampling : 4:2:0
Bit depth : 8 bits
Scan type : Progressive
Bits/(Pixel*Frame) : 0.091
Stream size : 7.44 GiB (94%)
Default : Yes
Forced : No
Color range : Limited
Color primaries : BT.709
Transfer characteristics : BT.709
Matrix coefficients : BT.709

TJPW Stand Proud

Audio
ID : 2
Format : AAC LC
Format/Info : Advanced Audio
Codec ID : A_AAC-2
Duration : 3 h 7 min
Bit rate : 384 kb/s
Channel(s) : 2 channels
Channel layout : L R
Sampling rate : 48.0 kHz
Frame rate : 46.875 FPS
Compression mode : Lossy
Delay relative to video : -33 ms
Stream size : 512 MiB (6%)
Default : Yes
Forced : No

Complete name : Tokyo.Joshi.Pro.2021.06.26.Stand.Proud.WEB.h264-LATE.mkv
Format : Matroska
Format version : Version 4
File size : 1.56 GiB
Duration : 3 h 7 min
Overall bit rate mode : Variable
Overall bit rate : 1 193 kb/s

TJPW Stand Proud

Video
ID : 1
Format : AVC
Format/Info : Advanced Video
Duration : 3 h 7 min
Bit rate mode : Variable
Bit rate : 1 065 kb/s
Maximum bit rate : 4 000 kb/s
Width : 960 pixels
Height : 540 pixels
Display aspect ratio : 16:9
Frame rate mode : Constant
Frame rate : 29.970 (30000/1001) FPS
Color space : YUV
Chroma subsampling : 4:2:0
Bit depth : 8 bits
Scan type : Progressive
Bits/(Pixel*Frame) : 0.069
Stream size : 1.40 GiB (89%)
Default : Yes
Forced : No
Color range : Limited
Color primaries : BT.709
Transfer characteristics : BT.709
Matrix coefficients : BT.709

TJPW Stand Proud

Audio
ID : 2
Format : AAC LC
Format/Info : Advanced Audio
Codec ID : A_AAC-2
Duration : 3 h 7 min
Bit rate : 125 kb/s
Channel(s) : 2 channels
Channel layout : L R
Sampling rate : 48.0 kHz
Frame rate : 46.875 FPS (1024 SPF)
Compression mode : Lossy
Delay relative to video : -33 ms
Stream size : 168 MiB (11%)
Default : Yes
Forced : No

TJPW Stand Proud

Complete name : Tokyo.Joshi.Pro.2021.06.26.Stand.Proud.720p.WEB.h264-LATE.mkv
Format : Matroska
Format version : Version 4
File size : 3.40 GiB
Duration : 3 h 7 min
Overall bit rate mode : Variable

Video
ID : 1
Format : AVC
Format/Info : Advanced Video
Duration : 3 h 7 min
Bit rate mode : Variable
Bit rate : 2 399 kb/s
Maximum bit rate : 8 000 kb/s
Width : 1 280 pixels
Height : 720 pixels
Display aspect ratio : 16:9
Frame rate mode : Constant
Frame rate : 29.970 (30000/1001) FPS
Color space : YUV
Chroma subsampling : 4:2:0
Bit depth : 8 bits
Scan type : Progressive
Bits/(Pixel*Frame) : 0.087
Stream size : 3.14 GiB (93%)
Default : Yes
Forced : No
Color range : Limited
Color primaries : BT.709
Transfer characteristics : BT.709
Matrix coefficients : BT.709

TJPW Stand Proud

Audio
ID : 2
Format : AAC LC
Format/Info : Advanced Audio
Codec ID : A_AAC-2
Duration : 3 h 7 min
Bit rate : 192 kb/s
Channel(s) : 2 channels
Channel layout : L R
Sampling rate : 48.0 kHz
Compression mode : Lossy
Delay relative to video : -33 ms
Stream size : 254 MiB (7%)
Default : Yes
Forced : No

Complete name : Tokyo.Joshi.Pro.2021.06.26.Stand.Proud.1080p.WEB.h264-LATE.mkv
Format : Matroska
Format version : Version 4
File size : 7.95 GiB
Duration : 3 h 7 min
Overall bit rate mode : Variable
Overall bit rate : 6 062 kb/s

TJPW Stand Proud

Video
ID : 1
Format : AVC
Format/Info : Advanced Video
Duration : 3 h 7 min
Bit rate mode : Variable
Bit rate : 5 678 kb/s
Maximum bit rate : 18.0 Mb/s
Width : 1 920 pixels
Height : 1 080 pixels
Display aspect ratio : 16:9
Frame rate mode : Constant
Frame rate : 29.970 (30000/1001) FPS
Color space : YUV
Chroma subsampling : 4:2:0
Bit depth : 8 bits
Scan type : Progressive
Bits/(Pixel*Frame) : 0.091
Stream size : 7.44 GiB (94%)
Default : Yes
Forced : No
Color range : Limited
Color primaries : BT.709
Transfer characteristics : BT.709
Matrix coefficients : BT.709

TJPW Stand Proud

Audio
ID : 2
Format : AAC LC
Format/Info : Advanced Audio
Codec ID : A_AAC-2
Duration : 3 h 7 min
Bit rate : 384 kb/s
Channel(s) : 2 channels
Channel layout : L R
Sampling rate : 48.0 kHz
Frame rate : 46.875 FPS
Compression mode : Lossy
Delay relative to video : -33 ms
Stream size : 512 MiB (6%)
Default : Yes
Forced : No

Complete name : Tokyo.Joshi.Pro.2021.06.26.Stand.Proud.WEB.h264-LATE.mkv
Format : Matroska
Format version : Version 4
File size : 1.56 GiB
Duration : 3 h 7 min
Overall bit rate mode : Variable
Overall bit rate : 1 193 kb/s

TJPW Stand Proud

Video
ID : 1
Format : AVC
Format/Info : Advanced Video
Duration : 3 h 7 min
Bit rate mode : Variable
Bit rate : 1 065 kb/s
Maximum bit rate : 4 000 kb/s
Width : 960 pixels
Height : 540 pixels
Display aspect ratio : 16:9
Frame rate mode : Constant
Frame rate : 29.970 (30000/1001) FPS
Color space : YUV
Chroma subsampling : 4:2:0
Bit depth : 8 bits
Scan type : Progressive
Bits/(Pixel*Frame) : 0.069
Stream size : 1.40 GiB (89%)
Default : Yes
Forced : No
Color range : Limited
Color primaries : BT.709
Transfer characteristics : BT.709
Matrix coefficients : BT.709

TJPW Stand Proud

Audio
ID : 2
Format : AAC LC
Format/Info : Advanced Audio
Codec ID : A_AAC-2
Duration : 3 h 7 min
Bit rate : 125 kb/s
Channel(s) : 2 channels
Channel layout : L R
Sampling rate : 48.0 kHz
Frame rate : 46.875 FPS (1024 SPF)
Compression mode : Lossy
Delay relative to video : -33 ms
Stream size : 168 MiB (11%)
Default : Yes
Forced : No

TJPW Stand Proud

 

[collapse]

 

 

https://dx-tv.com/

1 Comment

Leave a Reply

Your email address will not be published. Required fields are marked *

This site uses Akismet to reduce spam. Learn how your comment data is processed.