TJPW Seasonal Rivalry The Battle 2021 05 28

TJPW Seasonal Rivalry The Battle 2021 05 28 Replay Online DX-TV

TJPW Seasonal Rivalry

TJPW Seasonal Rivalry

 

 

 

Download Links with premium High Speed


 

Dopapk

 

 

Show Links

 

 

[collapse]

 

 

Nitroflare

 

 

Show Links

 

http://shrt10.com/zu7YrA

 

[collapse]

 

 

Rapidgator

 

 

Show Links

 

http://shrt10.com/dKazX0

 

[collapse]

 

 

Uploaded

 

 

Show Links

 

http://shrt10.com/5Ny6W

 

[collapse]

 

 

Watch online

 

Server 1

 

 

 

 

TJPW Seasonal Rivalry

 

 

 

 

Server-2

 

 

 

 

watch now

 

 

 

|Server-4

 

 

 

 

watch now

 

 

Uploaded By Site DX-TV.com

 

 

Show Info This Show

 

TJPW Seasonal Rivalry

Complete name : 2021.05.28.TJPW.Seasonal.Rivalry.The.Battle.2021.(OPENREC.TV).mp4
Format : MPEG-4
Format profile : Base Media
Codec ID : isom
File size : 2.78 GiB
Duration : 2 h 24 min
Overall bit rate : 2 758 kb/s

Video
ID : 1
Format : AVC
Format/Info : Advanced Video
Duration : 2 h 24 min
Bit rate : 2 553 kb/s
Width : 1 280 pixels
Height : 720 pixels
Display aspect ratio : 16:9
Frame rate mode : Constant
Frame rate : 60.000 FPS
Color space : YUV
Chroma subsampling : 4:2:0
Bit depth : 8 bits
Scan type : Progressive
Bits/(Pixel*Frame) : 0.046
Stream size : 2.58 GiB (93%)
Color primaries : BT.709
Transfer characteristics : BT.709
Matrix coefficients : BT.709
Codec configuration box : avcC

TJPW Seasonal Rivalry

Audio
ID : 2
Format : AAC LC
Codec ID : mp4a-40-2
Duration : 2 h 24 min
Bit rate mode : Constant
Bit rate : 192 kb/s
Channel(s) : 2 channels
Channel layout : L R
Sampling rate : 48.0 kHz
Frame rate : 46.875 FPS
Compression mode : Lossy
Stream size : 198 MiB (7%)
Default : Yes
Alternate group : 1

Audio
ID : 2
Format : AAC LC
Codec ID : mp4a-40-2
Duration : 2 h 24 min
Bit rate mode : Constant
Bit rate : 192 kb/s
Channel(s) : 2 channels
Channel layout : L R
Sampling rate : 48.0 kHz
Frame rate : 46.875 FPS
Compression mode : Lossy
Stream size : 198 MiB (7%)
Default : Yes
Alternate group : 1

Audio
ID : 2
Format : AAC LC
Codec ID : mp4a-40-2
Duration : 2 h 24 min
Bit rate mode : Constant
Bit rate : 192 kb/s
Channel(s) : 2 channels
Channel layout : L R
Sampling rate : 48.0 kHz
Frame rate : 46.875 FPS
Compression mode : Lossy
Stream size : 198 MiB (7%)
Default : Yes
Alternate group : 1

TJPW Seasonal Rivalry

Audio
ID : 2
Format : AAC LC
Codec ID : mp4a-40-2
Duration : 2 h 24 min
Bit rate mode : Constant
Bit rate : 192 kb/s
Channel(s) : 2 channels
Channel layout : L R
Sampling rate : 48.0 kHz
Frame rate : 46.875 FPS
Compression mode : Lossy
Stream size : 198 MiB (7%)
Default : Yes
Alternate group : 1

Audio
ID : 2
Format : AAC LC
Codec ID : mp4a-40-2
Duration : 2 h 24 min
Bit rate mode : Constant
Bit rate : 192 kb/s
Channel(s) : 2 channels
Channel layout : L R
Sampling rate : 48.0 kHz
Frame rate : 46.875 FPS
Compression mode : Lossy
Stream size : 198 MiB (7%)
Default : Yes
Alternate group : 1

Audio
ID : 2
Format : AAC LC
Codec ID : mp4a-40-2
Duration : 2 h 24 min
Bit rate mode : Constant
Bit rate : 192 kb/s
Channel(s) : 2 channels
Channel layout : L R
Sampling rate : 48.0 kHz
Frame rate : 46.875 FPS
Compression mode : Lossy
Stream size : 198 MiB (7%)
Default : Yes
Alternate group : 1

TJPW Seasonal

Audio
ID : 2
Format : AAC LC
Codec ID : mp4a-40-2
Duration : 2 h 24 min
Bit rate mode : Constant
Bit rate : 192 kb/s
Channel(s) : 2 channels
Channel layout : L R
Sampling rate : 48.0 kHz
Frame rate : 46.875 FPS
Compression mode : Lossy
Stream size : 198 MiB (7%)
Default : Yes
Alternate group : 1

Audio
ID : 2
Format : AAC LC
Codec ID : mp4a-40-2
Duration : 2 h 24 min
Bit rate mode : Constant
Bit rate : 192 kb/s
Channel(s) : 2 channels
Channel layout : L R
Sampling rate : 48.0 kHz
Frame rate : 46.875 FPS
Compression mode : Lossy
Stream size : 198 MiB (7%)
Default : Yes
Alternate group : 1

TJPW Seasonal

 

[collapse]

 

 

https://dx-tv.com/

Leave a Reply

Your email address will not be published. Required fields are marked *

This site uses Akismet to reduce spam. Learn how your comment data is processed.