TJPW Additional Attack 2021 English Online Free

TJPW Additional Attack 2021 English Online Free 2021 06 17 Replay DX-TV

Contents show

TJPW Additional Attack 2021

 TJPW Additional Attack 2021


Dopapk

 

[WhatsApp-Share]

Show Links

 

http://shrt10.com/zz5qEFnqk
http://shrt10.com/eYW4di50i

 

[collapse]

 

 

Nitroflare

 

 

Show Links

 

http://shrt10.com/LBucNV
http://shrt10.com/wXjzJ9

http://shrt10.com/6YdYAvBq8

[collapse]

 

 

Rapidgator

 

 

Show Links

 

http://shrt10.com/awZsK5o
http://shrt10.com/XqF4OrFC
http://shrt10.com/Hgnq9

 

[collapse]

 

 

Uploaded

 

 

Show Links

 

http://shrt10.com/SqPYH
http://shrt10.com/6Akw4IYyW

 

[collapse]

 

Watch online

 

Server 1

 

 

 

 

watch now

 

 

 

 

Server-2

 

 

 

 

watch now

 

 

 

|Server-4

 

 

 

 

watch now

 

 

Uploaded By Site DX-TV.com

 

 

Show Info This Show

TJPW Additional Attack 2021

 

Complete name : Tokyo.Joshi.Pro.2021.06.17.Additional.Attack.ENGLISH.WEB.h264-LATE.mkv
Format : Matroska
Format version : Version 4
File size : 1.87 GiB
Duration : 2 h 56 min
Overall bit rate mode : Variable
Overall bit rate : 1 514 kb/s

Video
ID : 1
Format : AVC
Format/Info : Advanced Video
Duration : 2 h 56 min
Bit rate mode : Variable
Bit rate : 1 386 kb/s
Maximum bit rate : 4 000 kb/s
Width : 960 pixels
Height : 540 pixels
Display aspect ratio : 16:9
Frame rate mode : Constant
Frame rate : 29.970 (30000/1001) FPS
Color space : YUV
Chroma subsampling : 4:2:0
Bit depth : 8 bits
Scan type : Progressive
Bits/(Pixel*Frame) : 0.089
Stream size : 1.71 GiB (92%)
Default : Yes
Forced : No
Color range : Limited
Color primaries : BT.709
Transfer characteristics : BT.709
Matrix coefficients : BT.709

TJPW Additional Attack 2021

Audio
ID : 2
Format : AAC LC
Format/Info : Advanced Audio
Codec ID : A_AAC-2
Duration : 2 h 56 min
Bit rate : 125 kb/s
Channel(s) : 2 channels
Channel layout : L R
Sampling rate : 48.0 kHz
Frame rate : 46.875 FPS (1024 SPF)
Compression mode : Lossy
Delay relative to video : -33 ms
Stream size : 158 MiB (8%)
Default : Yes
Forced : No

Complete name : Tokyo.Joshi.Pro.2021.06.17.Additional.Attack.ENGLISH.720p.WEB.h264-LATE.mkv
Format : Matroska
Format version : Version 4
File size : 4.17 GiB
Duration : 2 h 56 min
Overall bit rate mode : Variable
Overall bit rate : 3 382 kb/s

TJPW Additional Attack 2021

Video
ID : 1
Format : AVC
Format/Info : Advanced Video
Duration : 2 h 56 min
Bit rate mode : Variable
Bit rate : 3 190 kb/s
Maximum bit rate : 8 000 kb/s
Width : 1 280 pixels
Height : 720 pixels
Display aspect ratio : 16:9
Frame rate mode : Constant
Frame rate : 29.970 (30000/1001) FPS
Color space : YUV
Chroma subsampling : 4:2:0
Bit depth : 8 bits
Scan type : Progressive
Bits/(Pixel*Frame) : 0.115
Stream size : 3.93 GiB (94%)
Default : Yes
Forced : No
Color range : Limited
Color primaries : BT.709
Transfer characteristics : BT.709
Matrix coefficients : BT.709

TJPW Additional Attack 2021

Audio
ID : 2
Format : AAC LC
Format/Info : Advanced Audio
Codec ID : A_AAC-2
Duration : 2 h 56 min
Bit rate : 192 kb/s
Channel(s) : 2 channels
Channel layout : L R
Sampling rate : 48.0 kHz
Frame rate : 46.875 FPS
Compression mode : Lossy
Delay relative to video : -33 ms
Stream size : 239 MiB
Default : Yes
Forced : No

Complete name : Tokyo.Joshi.Pro.2021.06.17.Additional.Attack.ENGLISH.1080p.WEB.h264-LATE.mkv
Format : Matroska
Format version : Version 4
File size : 9.95 GiB
Duration : 2 h 56 min
Overall bit rate mode : Variable
Overall bit rate : 8 072 kb/s

TJPW Additional Attack 2021

Video
ID : 1
Format : AVC
Format/Info : Advanced Video
Duration : 2 h 56 min
Bit rate mode : Variable
Bit rate : 7 688 kb/s
Maximum bit rate : 18.0 Mb/s
Width : 1 920 pixels
Height : 1 080 pixels
Display aspect ratio : 16:9
Frame rate mode : Constant
Frame rate : 29.970 (30000/1001) FPS
Color space : YUV
Chroma subsampling : 4:2:0
Bit depth : 8 bits
Scan type : Progressive
Bits/(Pixel*Frame) : 0.124
Stream size : 9.48 GiB (95%)
Default : Yes
Forced : No
Color range : Limited
Color primaries : BT.709
Transfer characteristics : BT.709
Matrix coefficients : BT.709

TJPW Additional Attack 2021

Audio
ID : 2
Format : AAC LC
Format/Info : Advanced Audio
Codec ID : A_AAC-2
Duration : 2 h 56 min
Bit rate : 384 kb/s
Channel(s) : 2 channels
Channel layout : L R
Sampling rate : 48.0 kHz
Frame rate : 46.875 FPS (1024 SPF)
Compression mode : Lossy
Delay relative to video : -33 ms
Stream size : 481 MiB (5%)
Default : Yes
Forced : No

TJPW Additional Attack 2021

Complete name : Tokyo.Joshi.Pro.2021.06.17.Additional.Attack.ENGLISH.WEB.h264-LATE.mkv
Format : Matroska
Format version : Version 4
File size : 1.87 GiB
Duration : 2 h 56 min
Overall bit rate mode : Variable
Overall bit rate : 1 514 kb/s

Video
ID : 1
Format : AVC
Format/Info : Advanced Video
Duration : 2 h 56 min
Bit rate mode : Variable
Bit rate : 1 386 kb/s
Maximum bit rate : 4 000 kb/s
Width : 960 pixels
Height : 540 pixels
Display aspect ratio : 16:9
Frame rate mode : Constant
Frame rate : 29.970 (30000/1001) FPS
Color space : YUV
Chroma subsampling : 4:2:0
Bit depth : 8 bits
Scan type : Progressive
Bits/(Pixel*Frame) : 0.089
Stream size : 1.71 GiB (92%)
Default : Yes
Forced : No
Color range : Limited
Color primaries : BT.709
Transfer characteristics : BT.709
Matrix coefficients : BT.709

TJPW Additional Attack 2021

Audio
ID : 2
Format : AAC LC
Format/Info : Advanced Audio
Codec ID : A_AAC-2
Duration : 2 h 56 min
Bit rate : 125 kb/s
Channel(s) : 2 channels
Channel layout : L R
Sampling rate : 48.0 kHz
Frame rate : 46.875 FPS (1024 SPF)
Compression mode : Lossy
Delay relative to video : -33 ms
Stream size : 158 MiB (8%)
Default : Yes
Forced : No

Complete name : Tokyo.Joshi.Pro.2021.06.17.Additional.Attack.ENGLISH.720p.WEB.h264-LATE.mkv
Format : Matroska
Format version : Version 4
File size : 4.17 GiB
Duration : 2 h 56 min
Overall bit rate mode : Variable
Overall bit rate : 3 382 kb/s

TJPW Additional Attack 2021

Video
ID : 1
Format : AVC
Format/Info : Advanced Video
Duration : 2 h 56 min
Bit rate mode : Variable
Bit rate : 3 190 kb/s
Maximum bit rate : 8 000 kb/s
Width : 1 280 pixels
Height : 720 pixels
Display aspect ratio : 16:9
Frame rate mode : Constant
Frame rate : 29.970 (30000/1001) FPS
Color space : YUV
Chroma subsampling : 4:2:0
Bit depth : 8 bits
Scan type : Progressive
Bits/(Pixel*Frame) : 0.115
Stream size : 3.93 GiB (94%)
Default : Yes
Forced : No
Color range : Limited
Color primaries : BT.709
Transfer characteristics : BT.709
Matrix coefficients : BT.709

TJPW Additional Attack 2021

Audio
ID : 2
Format : AAC LC
Format/Info : Advanced Audio
Codec ID : A_AAC-2
Duration : 2 h 56 min
Bit rate : 192 kb/s
Channel(s) : 2 channels
Channel layout : L R
Sampling rate : 48.0 kHz
Frame rate : 46.875 FPS
Compression mode : Lossy
Delay relative to video : -33 ms
Stream size : 239 MiB
Default : Yes
Forced : No

Complete name : Tokyo.Joshi.Pro.2021.06.17.Additional.Attack.ENGLISH.1080p.WEB.h264-LATE.mkv
Format : Matroska
Format version : Version 4
File size : 9.95 GiB
Duration : 2 h 56 min
Overall bit rate mode : Variable
Overall bit rate : 8 072 kb/s

TJPW Additional Attack 2021

Video
ID : 1
Format : AVC
Format/Info : Advanced Video
Duration : 2 h 56 min
Bit rate mode : Variable
Bit rate : 7 688 kb/s
Maximum bit rate : 18.0 Mb/s
Width : 1 920 pixels
Height : 1 080 pixels
Display aspect ratio : 16:9
Frame rate mode : Constant
Frame rate : 29.970 (30000/1001) FPS
Color space : YUV
Chroma subsampling : 4:2:0
Bit depth : 8 bits
Scan type : Progressive
Bits/(Pixel*Frame) : 0.124
Stream size : 9.48 GiB (95%)
Default : Yes
Forced : No
Color range : Limited
Color primaries : BT.709
Transfer characteristics : BT.709
Matrix coefficients : BT.709

TJPW Additional Attack 2021

Audio
ID : 2
Format : AAC LC
Format/Info : Advanced Audio
Codec ID : A_AAC-2
Duration : 2 h 56 min
Bit rate : 384 kb/s
Channel(s) : 2 channels
Channel layout : L R
Sampling rate : 48.0 kHz
Frame rate : 46.875 FPS (1024 SPF)
Compression mode : Lossy
Delay relative to video : -33 ms
Stream size : 481 MiB (5%)
Default : Yes
Forced : No

TJPW Additional Attack 2021

Complete name : Tokyo.Joshi.Pro.2021.06.17.Additional.Attack.ENGLISH.WEB.h264-LATE.mkv
Format : Matroska
Format version : Version 4
File size : 1.87 GiB
Duration : 2 h 56 min
Overall bit rate mode : Variable
Overall bit rate : 1 514 kb/s

Video
ID : 1
Format : AVC
Format/Info : Advanced Video
Duration : 2 h 56 min
Bit rate mode : Variable
Bit rate : 1 386 kb/s
Maximum bit rate : 4 000 kb/s
Width : 960 pixels
Height : 540 pixels
Display aspect ratio : 16:9
Frame rate mode : Constant
Frame rate : 29.970 (30000/1001) FPS
Color space : YUV
Chroma subsampling : 4:2:0
Bit depth : 8 bits
Scan type : Progressive
Bits/(Pixel*Frame) : 0.089
Stream size : 1.71 GiB (92%)
Default : Yes
Forced : No
Color range : Limited
Color primaries : BT.709
Transfer characteristics : BT.709
Matrix coefficients : BT.709

TJPW Additional Attack 2021

Audio
ID : 2
Format : AAC LC
Format/Info : Advanced Audio
Codec ID : A_AAC-2
Duration : 2 h 56 min
Bit rate : 125 kb/s
Channel(s) : 2 channels
Channel layout : L R
Sampling rate : 48.0 kHz
Frame rate : 46.875 FPS (1024 SPF)
Compression mode : Lossy
Delay relative to video : -33 ms
Stream size : 158 MiB (8%)
Default : Yes
Forced : No

Complete name : Tokyo.Joshi.Pro.2021.06.17.Additional.Attack.ENGLISH.720p.WEB.h264-LATE.mkv
Format : Matroska
Format version : Version 4
File size : 4.17 GiB
Duration : 2 h 56 min
Overall bit rate mode : Variable
Overall bit rate : 3 382 kb/s

TJPW Additional Attack 2021

Video
ID : 1
Format : AVC
Format/Info : Advanced Video
Duration : 2 h 56 min
Bit rate mode : Variable
Bit rate : 3 190 kb/s
Maximum bit rate : 8 000 kb/s
Width : 1 280 pixels
Height : 720 pixels
Display aspect ratio : 16:9
Frame rate mode : Constant
Frame rate : 29.970 (30000/1001) FPS
Color space : YUV
Chroma subsampling : 4:2:0
Bit depth : 8 bits
Scan type : Progressive
Bits/(Pixel*Frame) : 0.115
Stream size : 3.93 GiB (94%)
Default : Yes
Forced : No
Color range : Limited
Color primaries : BT.709
Transfer characteristics : BT.709
Matrix coefficients : BT.709

TJPW Additional Attack 2021

Audio
ID : 2
Format : AAC LC
Format/Info : Advanced Audio
Codec ID : A_AAC-2
Duration : 2 h 56 min
Bit rate : 192 kb/s
Channel(s) : 2 channels
Channel layout : L R
Sampling rate : 48.0 kHz
Frame rate : 46.875 FPS
Compression mode : Lossy
Delay relative to video : -33 ms
Stream size : 239 MiB
Default : Yes
Forced : No

Complete name : Tokyo.Joshi.Pro.2021.06.17.Additional.Attack.ENGLISH.1080p.WEB.h264-LATE.mkv
Format : Matroska
Format version : Version 4
File size : 9.95 GiB
Duration : 2 h 56 min
Overall bit rate mode : Variable
Overall bit rate : 8 072 kb/s

TJPW Additional Attack 2021

Video
ID : 1
Format : AVC
Format/Info : Advanced Video
Duration : 2 h 56 min
Bit rate mode : Variable
Bit rate : 7 688 kb/s
Maximum bit rate : 18.0 Mb/s
Width : 1 920 pixels
Height : 1 080 pixels
Display aspect ratio : 16:9
Frame rate mode : Constant
Frame rate : 29.970 (30000/1001) FPS
Color space : YUV
Chroma subsampling : 4:2:0
Bit depth : 8 bits
Scan type : Progressive
Bits/(Pixel*Frame) : 0.124
Stream size : 9.48 GiB (95%)
Default : Yes
Forced : No
Color range : Limited
Color primaries : BT.709
Transfer characteristics : BT.709
Matrix coefficients : BT.709

TJPW Additional Attack 2021

Audio
ID : 2
Format : AAC LC
Format/Info : Advanced Audio
Codec ID : A_AAC-2
Duration : 2 h 56 min
Bit rate : 384 kb/s
Channel(s) : 2 channels
Channel layout : L R
Sampling rate : 48.0 kHz
Frame rate : 46.875 FPS (1024 SPF)
Compression mode : Lossy
Delay relative to video : -33 ms
Stream size : 481 MiB (5%)
Default : Yes
Forced : No

TJPW Additional Attack 2021

Complete name : Tokyo.Joshi.Pro.2021.06.17.Additional.Attack.ENGLISH.WEB.h264-LATE.mkv
Format : Matroska
Format version : Version 4
File size : 1.87 GiB
Duration : 2 h 56 min
Overall bit rate mode : Variable
Overall bit rate : 1 514 kb/s

Video
ID : 1
Format : AVC
Format/Info : Advanced Video
Duration : 2 h 56 min
Bit rate mode : Variable
Bit rate : 1 386 kb/s
Maximum bit rate : 4 000 kb/s
Width : 960 pixels
Height : 540 pixels
Display aspect ratio : 16:9
Frame rate mode : Constant
Frame rate : 29.970 (30000/1001) FPS
Color space : YUV
Chroma subsampling : 4:2:0
Bit depth : 8 bits
Scan type : Progressive
Bits/(Pixel*Frame) : 0.089
Stream size : 1.71 GiB (92%)
Default : Yes
Forced : No
Color range : Limited
Color primaries : BT.709
Transfer characteristics : BT.709
Matrix coefficients : BT.709

TJPW Additional Attack 2021

Audio
ID : 2
Format : AAC LC
Format/Info : Advanced Audio
Codec ID : A_AAC-2
Duration : 2 h 56 min
Bit rate : 125 kb/s
Channel(s) : 2 channels
Channel layout : L R
Sampling rate : 48.0 kHz
Frame rate : 46.875 FPS (1024 SPF)
Compression mode : Lossy
Delay relative to video : -33 ms
Stream size : 158 MiB (8%)
Default : Yes
Forced : No

Complete name : Tokyo.Joshi.Pro.2021.06.17.Additional.Attack.ENGLISH.720p.WEB.h264-LATE.mkv
Format : Matroska
Format version : Version 4
File size : 4.17 GiB
Duration : 2 h 56 min
Overall bit rate mode : Variable
Overall bit rate : 3 382 kb/s

TJPW Additional Attack 2021

Video
ID : 1
Format : AVC
Format/Info : Advanced Video
Duration : 2 h 56 min
Bit rate mode : Variable
Bit rate : 3 190 kb/s
Maximum bit rate : 8 000 kb/s
Width : 1 280 pixels
Height : 720 pixels
Display aspect ratio : 16:9
Frame rate mode : Constant
Frame rate : 29.970 (30000/1001) FPS
Color space : YUV
Chroma subsampling : 4:2:0
Bit depth : 8 bits
Scan type : Progressive
Bits/(Pixel*Frame) : 0.115
Stream size : 3.93 GiB (94%)
Default : Yes
Forced : No
Color range : Limited
Color primaries : BT.709
Transfer characteristics : BT.709
Matrix coefficients : BT.709

TJPW Additional Attack 2021

Audio
ID : 2
Format : AAC LC
Format/Info : Advanced Audio
Codec ID : A_AAC-2
Duration : 2 h 56 min
Bit rate : 192 kb/s
Channel(s) : 2 channels
Channel layout : L R
Sampling rate : 48.0 kHz
Frame rate : 46.875 FPS
Compression mode : Lossy
Delay relative to video : -33 ms
Stream size : 239 MiB
Default : Yes
Forced : No

Complete name : Tokyo.Joshi.Pro.2021.06.17.Additional.Attack.ENGLISH.1080p.WEB.h264-LATE.mkv
Format : Matroska
Format version : Version 4
File size : 9.95 GiB
Duration : 2 h 56 min
Overall bit rate mode : Variable
Overall bit rate : 8 072 kb/s

TJPW Additional Attack 2021

Video
ID : 1
Format : AVC
Format/Info : Advanced Video
Duration : 2 h 56 min
Bit rate mode : Variable
Bit rate : 7 688 kb/s
Maximum bit rate : 18.0 Mb/s
Width : 1 920 pixels
Height : 1 080 pixels
Display aspect ratio : 16:9
Frame rate mode : Constant
Frame rate : 29.970 (30000/1001) FPS
Color space : YUV
Chroma subsampling : 4:2:0
Bit depth : 8 bits
Scan type : Progressive
Bits/(Pixel*Frame) : 0.124
Stream size : 9.48 GiB (95%)
Default : Yes
Forced : No
Color range : Limited
Color primaries : BT.709
Transfer characteristics : BT.709
Matrix coefficients : BT.709

TJPW Additional Attack 2021

Audio
ID : 2
Format : AAC LC
Format/Info : Advanced Audio
Codec ID : A_AAC-2
Duration : 2 h 56 min
Bit rate : 384 kb/s
Channel(s) : 2 channels
Channel layout : L R
Sampling rate : 48.0 kHz
Frame rate : 46.875 FPS (1024 SPF)
Compression mode : Lossy
Delay relative to video : -33 ms
Stream size : 481 MiB (5%)
Default : Yes
Forced : No

TJPW Additional Attack 2021

Complete name : Tokyo.Joshi.Pro.2021.06.17.Additional.Attack.ENGLISH.WEB.h264-LATE.mkv
Format : Matroska
Format version : Version 4
File size : 1.87 GiB
Duration : 2 h 56 min
Overall bit rate mode : Variable
Overall bit rate : 1 514 kb/s

Video
ID : 1
Format : AVC
Format/Info : Advanced Video
Duration : 2 h 56 min
Bit rate mode : Variable
Bit rate : 1 386 kb/s
Maximum bit rate : 4 000 kb/s
Width : 960 pixels
Height : 540 pixels
Display aspect ratio : 16:9
Frame rate mode : Constant
Frame rate : 29.970 (30000/1001) FPS
Color space : YUV
Chroma subsampling : 4:2:0
Bit depth : 8 bits
Scan type : Progressive
Bits/(Pixel*Frame) : 0.089
Stream size : 1.71 GiB (92%)
Default : Yes
Forced : No
Color range : Limited
Color primaries : BT.709
Transfer characteristics : BT.709
Matrix coefficients : BT.709

TJPW Additional Attack 2021

Audio
ID : 2
Format : AAC LC
Format/Info : Advanced Audio
Codec ID : A_AAC-2
Duration : 2 h 56 min
Bit rate : 125 kb/s
Channel(s) : 2 channels
Channel layout : L R
Sampling rate : 48.0 kHz
Frame rate : 46.875 FPS (1024 SPF)
Compression mode : Lossy
Delay relative to video : -33 ms
Stream size : 158 MiB (8%)
Default : Yes
Forced : No

Complete name : Tokyo.Joshi.Pro.2021.06.17.Additional.Attack.ENGLISH.720p.WEB.h264-LATE.mkv
Format : Matroska
Format version : Version 4
File size : 4.17 GiB
Duration : 2 h 56 min
Overall bit rate mode : Variable
Overall bit rate : 3 382 kb/s

TJPW Additional Attack 2021

Video
ID : 1
Format : AVC
Format/Info : Advanced Video
Duration : 2 h 56 min
Bit rate mode : Variable
Bit rate : 3 190 kb/s
Maximum bit rate : 8 000 kb/s
Width : 1 280 pixels
Height : 720 pixels
Display aspect ratio : 16:9
Frame rate mode : Constant
Frame rate : 29.970 (30000/1001) FPS
Color space : YUV
Chroma subsampling : 4:2:0
Bit depth : 8 bits
Scan type : Progressive
Bits/(Pixel*Frame) : 0.115
Stream size : 3.93 GiB (94%)
Default : Yes
Forced : No
Color range : Limited
Color primaries : BT.709
Transfer characteristics : BT.709
Matrix coefficients : BT.709

TJPW Additional Attack 2021

Audio
ID : 2
Format : AAC LC
Format/Info : Advanced Audio
Codec ID : A_AAC-2
Duration : 2 h 56 min
Bit rate : 192 kb/s
Channel(s) : 2 channels
Channel layout : L R
Sampling rate : 48.0 kHz
Frame rate : 46.875 FPS
Compression mode : Lossy
Delay relative to video : -33 ms
Stream size : 239 MiB
Default : Yes
Forced : No

Complete name : Tokyo.Joshi.Pro.2021.06.17.Additional.Attack.ENGLISH.1080p.WEB.h264-LATE.mkv
Format : Matroska
Format version : Version 4
File size : 9.95 GiB
Duration : 2 h 56 min
Overall bit rate mode : Variable
Overall bit rate : 8 072 kb/s

TJPW Additional Attack 2021

Video
ID : 1
Format : AVC
Format/Info : Advanced Video
Duration : 2 h 56 min
Bit rate mode : Variable
Bit rate : 7 688 kb/s
Maximum bit rate : 18.0 Mb/s
Width : 1 920 pixels
Height : 1 080 pixels
Display aspect ratio : 16:9
Frame rate mode : Constant
Frame rate : 29.970 (30000/1001) FPS
Color space : YUV
Chroma subsampling : 4:2:0
Bit depth : 8 bits
Scan type : Progressive
Bits/(Pixel*Frame) : 0.124
Stream size : 9.48 GiB (95%)
Default : Yes
Forced : No
Color range : Limited
Color primaries : BT.709
Transfer characteristics : BT.709
Matrix coefficients : BT.709

TJPW Additional Attack 2021

Audio
ID : 2
Format : AAC LC
Format/Info : Advanced Audio
Codec ID : A_AAC-2
Duration : 2 h 56 min
Bit rate : 384 kb/s
Channel(s) : 2 channels
Channel layout : L R
Sampling rate : 48.0 kHz
Frame rate : 46.875 FPS (1024 SPF)
Compression mode : Lossy
Delay relative to video : -33 ms
Stream size : 481 MiB (5%)
Default : Yes
Forced : No

TJPW Additional Attack 2021

Complete name : Tokyo.Joshi.Pro.2021.06.17.Additional.Attack.ENGLISH.WEB.h264-LATE.mkv
Format : Matroska
Format version : Version 4
File size : 1.87 GiB
Duration : 2 h 56 min
Overall bit rate mode : Variable
Overall bit rate : 1 514 kb/s

Video
ID : 1
Format : AVC
Format/Info : Advanced Video
Duration : 2 h 56 min
Bit rate mode : Variable
Bit rate : 1 386 kb/s
Maximum bit rate : 4 000 kb/s
Width : 960 pixels
Height : 540 pixels
Display aspect ratio : 16:9
Frame rate mode : Constant
Frame rate : 29.970 (30000/1001) FPS
Color space : YUV
Chroma subsampling : 4:2:0
Bit depth : 8 bits
Scan type : Progressive
Bits/(Pixel*Frame) : 0.089
Stream size : 1.71 GiB (92%)
Default : Yes
Forced : No
Color range : Limited
Color primaries : BT.709
Transfer characteristics : BT.709
Matrix coefficients : BT.709

TJPW Additional Attack 2021

Audio
ID : 2
Format : AAC LC
Format/Info : Advanced Audio
Codec ID : A_AAC-2
Duration : 2 h 56 min
Bit rate : 125 kb/s
Channel(s) : 2 channels
Channel layout : L R
Sampling rate : 48.0 kHz
Frame rate : 46.875 FPS (1024 SPF)
Compression mode : Lossy
Delay relative to video : -33 ms
Stream size : 158 MiB (8%)
Default : Yes
Forced : No

Complete name : Tokyo.Joshi.Pro.2021.06.17.Additional.Attack.ENGLISH.720p.WEB.h264-LATE.mkv
Format : Matroska
Format version : Version 4
File size : 4.17 GiB
Duration : 2 h 56 min
Overall bit rate mode : Variable
Overall bit rate : 3 382 kb/s

TJPW Additional Attack 2021

Video
ID : 1
Format : AVC
Format/Info : Advanced Video
Duration : 2 h 56 min
Bit rate mode : Variable
Bit rate : 3 190 kb/s
Maximum bit rate : 8 000 kb/s
Width : 1 280 pixels
Height : 720 pixels
Display aspect ratio : 16:9
Frame rate mode : Constant
Frame rate : 29.970 (30000/1001) FPS
Color space : YUV
Chroma subsampling : 4:2:0
Bit depth : 8 bits
Scan type : Progressive
Bits/(Pixel*Frame) : 0.115
Stream size : 3.93 GiB (94%)
Default : Yes
Forced : No
Color range : Limited
Color primaries : BT.709
Transfer characteristics : BT.709
Matrix coefficients : BT.709

TJPW Additional Attack 2021

Audio
ID : 2
Format : AAC LC
Format/Info : Advanced Audio
Codec ID : A_AAC-2
Duration : 2 h 56 min
Bit rate : 192 kb/s
Channel(s) : 2 channels
Channel layout : L R
Sampling rate : 48.0 kHz
Frame rate : 46.875 FPS
Compression mode : Lossy
Delay relative to video : -33 ms
Stream size : 239 MiB
Default : Yes
Forced : No

Complete name : Tokyo.Joshi.Pro.2021.06.17.Additional.Attack.ENGLISH.1080p.WEB.h264-LATE.mkv
Format : Matroska
Format version : Version 4
File size : 9.95 GiB
Duration : 2 h 56 min
Overall bit rate mode : Variable
Overall bit rate : 8 072 kb/s

TJPW Additional Attack 2021

Video
ID : 1
Format : AVC
Format/Info : Advanced Video
Duration : 2 h 56 min
Bit rate mode : Variable
Bit rate : 7 688 kb/s
Maximum bit rate : 18.0 Mb/s
Width : 1 920 pixels
Height : 1 080 pixels
Display aspect ratio : 16:9
Frame rate mode : Constant
Frame rate : 29.970 (30000/1001) FPS
Color space : YUV
Chroma subsampling : 4:2:0
Bit depth : 8 bits
Scan type : Progressive
Bits/(Pixel*Frame) : 0.124
Stream size : 9.48 GiB (95%)
Default : Yes
Forced : No
Color range : Limited
Color primaries : BT.709
Transfer characteristics : BT.709
Matrix coefficients : BT.709

TJPW Additional Attack 2021

Audio
ID : 2
Format : AAC LC
Format/Info : Advanced Audio
Codec ID : A_AAC-2
Duration : 2 h 56 min
Bit rate : 384 kb/s
Channel(s) : 2 channels
Channel layout : L R
Sampling rate : 48.0 kHz
Frame rate : 46.875 FPS (1024 SPF)
Compression mode : Lossy
Delay relative to video : -33 ms
Stream size : 481 MiB (5%)
Default : Yes
Forced : No

TJPW Additional Attack 2021

Complete name : Tokyo.Joshi.Pro.2021.06.17.Additional.Attack.ENGLISH.WEB.h264-LATE.mkv
Format : Matroska
Format version : Version 4
File size : 1.87 GiB
Duration : 2 h 56 min
Overall bit rate mode : Variable
Overall bit rate : 1 514 kb/s

Video
ID : 1
Format : AVC
Format/Info : Advanced Video
Duration : 2 h 56 min
Bit rate mode : Variable
Bit rate : 1 386 kb/s
Maximum bit rate : 4 000 kb/s
Width : 960 pixels
Height : 540 pixels
Display aspect ratio : 16:9
Frame rate mode : Constant
Frame rate : 29.970 (30000/1001) FPS
Color space : YUV
Chroma subsampling : 4:2:0
Bit depth : 8 bits
Scan type : Progressive
Bits/(Pixel*Frame) : 0.089
Stream size : 1.71 GiB (92%)
Default : Yes
Forced : No
Color range : Limited
Color primaries : BT.709
Transfer characteristics : BT.709
Matrix coefficients : BT.709

TJPW Additional Attack 2021

Audio
ID : 2
Format : AAC LC
Format/Info : Advanced Audio
Codec ID : A_AAC-2
Duration : 2 h 56 min
Bit rate : 125 kb/s
Channel(s) : 2 channels
Channel layout : L R
Sampling rate : 48.0 kHz
Frame rate : 46.875 FPS (1024 SPF)
Compression mode : Lossy
Delay relative to video : -33 ms
Stream size : 158 MiB (8%)
Default : Yes
Forced : No

Complete name : Tokyo.Joshi.Pro.2021.06.17.Additional.Attack.ENGLISH.720p.WEB.h264-LATE.mkv
Format : Matroska
Format version : Version 4
File size : 4.17 GiB
Duration : 2 h 56 min
Overall bit rate mode : Variable
Overall bit rate : 3 382 kb/s

TJPW Additional Attack 2021

Video
ID : 1
Format : AVC
Format/Info : Advanced Video
Duration : 2 h 56 min
Bit rate mode : Variable
Bit rate : 3 190 kb/s
Maximum bit rate : 8 000 kb/s
Width : 1 280 pixels
Height : 720 pixels
Display aspect ratio : 16:9
Frame rate mode : Constant
Frame rate : 29.970 (30000/1001) FPS
Color space : YUV
Chroma subsampling : 4:2:0
Bit depth : 8 bits
Scan type : Progressive
Bits/(Pixel*Frame) : 0.115
Stream size : 3.93 GiB (94%)
Default : Yes
Forced : No
Color range : Limited
Color primaries : BT.709
Transfer characteristics : BT.709
Matrix coefficients : BT.709

TJPW Additional Attack 2021

Audio
ID : 2
Format : AAC LC
Format/Info : Advanced Audio
Codec ID : A_AAC-2
Duration : 2 h 56 min
Bit rate : 192 kb/s
Channel(s) : 2 channels
Channel layout : L R
Sampling rate : 48.0 kHz
Frame rate : 46.875 FPS
Compression mode : Lossy
Delay relative to video : -33 ms
Stream size : 239 MiB
Default : Yes
Forced : No

Complete name : Tokyo.Joshi.Pro.2021.06.17.Additional.Attack.ENGLISH.1080p.WEB.h264-LATE.mkv
Format : Matroska
Format version : Version 4
File size : 9.95 GiB
Duration : 2 h 56 min
Overall bit rate mode : Variable
Overall bit rate : 8 072 kb/s

TJPW Additional Attack 2021

Video
ID : 1
Format : AVC
Format/Info : Advanced Video
Duration : 2 h 56 min
Bit rate mode : Variable
Bit rate : 7 688 kb/s
Maximum bit rate : 18.0 Mb/s
Width : 1 920 pixels
Height : 1 080 pixels
Display aspect ratio : 16:9
Frame rate mode : Constant
Frame rate : 29.970 (30000/1001) FPS
Color space : YUV
Chroma subsampling : 4:2:0
Bit depth : 8 bits
Scan type : Progressive
Bits/(Pixel*Frame) : 0.124
Stream size : 9.48 GiB (95%)
Default : Yes
Forced : No
Color range : Limited
Color primaries : BT.709
Transfer characteristics : BT.709
Matrix coefficients : BT.709

TJPW Additional Attack 2021

Audio
ID : 2
Format : AAC LC
Format/Info : Advanced Audio
Codec ID : A_AAC-2
Duration : 2 h 56 min
Bit rate : 384 kb/s
Channel(s) : 2 channels
Channel layout : L R
Sampling rate : 48.0 kHz
Frame rate : 46.875 FPS (1024 SPF)
Compression mode : Lossy
Delay relative to video : -33 ms
Stream size : 481 MiB (5%)
Default : Yes
Forced : No

TJPW Additional Attack 2021

Complete name : Tokyo.Joshi.Pro.2021.06.17.Additional.Attack.ENGLISH.WEB.h264-LATE.mkv
Format : Matroska
Format version : Version 4
File size : 1.87 GiB
Duration : 2 h 56 min
Overall bit rate mode : Variable
Overall bit rate : 1 514 kb/s

Video
ID : 1
Format : AVC
Format/Info : Advanced Video
Duration : 2 h 56 min
Bit rate mode : Variable
Bit rate : 1 386 kb/s
Maximum bit rate : 4 000 kb/s
Width : 960 pixels
Height : 540 pixels
Display aspect ratio : 16:9
Frame rate mode : Constant
Frame rate : 29.970 (30000/1001) FPS
Color space : YUV
Chroma subsampling : 4:2:0
Bit depth : 8 bits
Scan type : Progressive
Bits/(Pixel*Frame) : 0.089
Stream size : 1.71 GiB (92%)
Default : Yes
Forced : No
Color range : Limited
Color primaries : BT.709
Transfer characteristics : BT.709
Matrix coefficients : BT.709

TJPW Additional Attack 2021

Audio
ID : 2
Format : AAC LC
Format/Info : Advanced Audio
Codec ID : A_AAC-2
Duration : 2 h 56 min
Bit rate : 125 kb/s
Channel(s) : 2 channels
Channel layout : L R
Sampling rate : 48.0 kHz
Frame rate : 46.875 FPS (1024 SPF)
Compression mode : Lossy
Delay relative to video : -33 ms
Stream size : 158 MiB (8%)
Default : Yes
Forced : No

Complete name : Tokyo.Joshi.Pro.2021.06.17.Additional.Attack.ENGLISH.720p.WEB.h264-LATE.mkv
Format : Matroska
Format version : Version 4
File size : 4.17 GiB
Duration : 2 h 56 min
Overall bit rate mode : Variable
Overall bit rate : 3 382 kb/s

TJPW Additional Attack 2021

Video
ID : 1
Format : AVC
Format/Info : Advanced Video
Duration : 2 h 56 min
Bit rate mode : Variable
Bit rate : 3 190 kb/s
Maximum bit rate : 8 000 kb/s
Width : 1 280 pixels
Height : 720 pixels
Display aspect ratio : 16:9
Frame rate mode : Constant
Frame rate : 29.970 (30000/1001) FPS
Color space : YUV
Chroma subsampling : 4:2:0
Bit depth : 8 bits
Scan type : Progressive
Bits/(Pixel*Frame) : 0.115
Stream size : 3.93 GiB (94%)
Default : Yes
Forced : No
Color range : Limited
Color primaries : BT.709
Transfer characteristics : BT.709
Matrix coefficients : BT.709

TJPW Additional Attack 2021

Audio
ID : 2
Format : AAC LC
Format/Info : Advanced Audio
Codec ID : A_AAC-2
Duration : 2 h 56 min
Bit rate : 192 kb/s
Channel(s) : 2 channels
Channel layout : L R
Sampling rate : 48.0 kHz
Frame rate : 46.875 FPS
Compression mode : Lossy
Delay relative to video : -33 ms
Stream size : 239 MiB
Default : Yes
Forced : No

Complete name : Tokyo.Joshi.Pro.2021.06.17.Additional.Attack.ENGLISH.1080p.WEB.h264-LATE.mkv
Format : Matroska
Format version : Version 4
File size : 9.95 GiB
Duration : 2 h 56 min
Overall bit rate mode : Variable
Overall bit rate : 8 072 kb/s

TJPW Additional Attack 2021

Video
ID : 1
Format : AVC
Format/Info : Advanced Video
Duration : 2 h 56 min
Bit rate mode : Variable
Bit rate : 7 688 kb/s
Maximum bit rate : 18.0 Mb/s
Width : 1 920 pixels
Height : 1 080 pixels
Display aspect ratio : 16:9
Frame rate mode : Constant
Frame rate : 29.970 (30000/1001) FPS
Color space : YUV
Chroma subsampling : 4:2:0
Bit depth : 8 bits
Scan type : Progressive
Bits/(Pixel*Frame) : 0.124
Stream size : 9.48 GiB (95%)
Default : Yes
Forced : No
Color range : Limited
Color primaries : BT.709
Transfer characteristics : BT.709
Matrix coefficients : BT.709

TJPW Additional Attack 2021

Audio
ID : 2
Format : AAC LC
Format/Info : Advanced Audio
Codec ID : A_AAC-2
Duration : 2 h 56 min
Bit rate : 384 kb/s
Channel(s) : 2 channels
Channel layout : L R
Sampling rate : 48.0 kHz
Frame rate : 46.875 FPS (1024 SPF)
Compression mode : Lossy
Delay relative to video : -33 ms
Stream size : 481 MiB (5%)
Default : Yes
Forced : No

TJPW Additional Attack 2021

 

[collapse]

 

 

https://dx-tv.com/

Leave a Reply

Your email address will not be published. Required fields are marked *

This site uses Akismet to reduce spam. Learn how your comment data is processed.