TJPW 8th Tokyo Princess Cup Final 2021 Japan Online Free

TJPW 8th Tokyo Princess Cup Final 2021 1080p Japan Online Free Replay DX-TV

Contents show

Princess Cup Final 2021

 TJPW 8th Tokyo Princess Cup Final

 

 

 

Download Links with premium High Speed


 

Dopapk

 

 

Show Links

 

http://shrt10.com/24MBgcgBX
http://shrt10.com/eIUCT
http://shrt10.com/FQMU62

 

[collapse]

 

 

Nitroflare

 

 

Show Links

 

http://shrt10.com/NWp9SU
http://shrt10.com/0jhN4d
http://shrt10.com/3A5O3ztiU

 

[collapse]

 

 

Rapidgator

 

 

Show Links

 

http://shrt10.com/TBCSu53e
http://shrt10.com/dbx54
http://shrt10.com/dPJApbVo0

 

[collapse]

 

 

Uploaded

 

 

Show Links

 

http://shrt10.com/DmF0kLIbs
http://shrt10.com/IqUkA6EmE

 

[collapse]

 

 

Watch online

 

Server 1

 

 

 

 

TJPW 8th Tokyo Princess Cup Final

 

 

 

 

Server-2

 

 

 

 

Princess Cup Final 2021

 

 

 

|Server-3

 

 

 

 

watch now

 

 

Uploaded By Site DX-TV.com

 

 

Show Info This Show

Princess Cup Final 2021

 
Complete name : Tokyo.Joshi.Pro.2021.08.15.8th.Tokyo.Princess.Cup.Final.JAPANESE.WEB.h264-LATE.mkv
Format : Matroska
Format version : Version 4
File size : 1.67 GiB
Duration : 2 h 26 min
Overall bit rate mode : Variable
Overall bit rate : 1 630 kb/s

Video
ID : 1
Format : AVC
Format/Info : Advanced Video
Duration : 2 h 26 min
Bit rate mode : Variable
Bit rate : 1 502 kb/s
Maximum bit rate : 4 000 kb/s
Width : 960 pixels
Height : 540 pixels
Display aspect ratio : 16:9
Frame rate mode : Constant
Frame rate : 29.970 (30000/1001) FPS
Color space : YUV
Chroma subsampling : 4:2:0
Bit depth : 8 bits
Scan type : Progressive
Bits/(Pixel*Frame) : 0.097
Stream size : 1.54 GiB (92%)
Default : Yes
Forced : No
Color range : Limited
Color primaries : BT.709
Transfer characteristics : BT.709
Matrix coefficients : BT.709

Princess Cup Final 2021

Audio
ID : 2
Format : AAC LC
Format/Info : Advanced Audio
Codec ID : A_AAC-2
Duration : 2 h 26 min
Bit rate : 125 kb/s
Channel(s) : 2 channels
Channel layout : L R
Sampling rate : 48.0 kHz
Frame rate : 46.875 FPS (1024 SPF)
Compression mode : Lossy
Delay relative to video : 17 ms
Stream size : 131 MiB (8%)
Default : Yes
Forced : No

Complete name : Tokyo.Joshi.Pro.2021.08.15.8th.Tokyo.Princess.Cup.Final.JAPANESE.1080p.WEB.h264-LATE.mkv
Format : Matroska
Format version : Version 4
File size : 8.66 GiB
Duration : 2 h 26 min
Overall bit rate mode : Variable
Overall bit rate : 8 465 kb/s

Princess Cup Final 2021

Video
ID : 1
Format : AVC
Format/Info : Advanced Video
Duration : 2 h 26 min
Bit rate mode : Variable
Bit rate : 8 081 kb/s
Maximum bit rate : 18.0 Mb/s
Width : 1 920 pixels
Height : 1 080 pixels
Display aspect ratio : 16:9
Frame rate mode : Constant
Frame rate : 29.970 (30000/1001) FPS
Color space : YUV
Chroma subsampling : 4:2:0
Bit depth : 8 bits
Scan type : Progressive
Bits/(Pixel*Frame) : 0.130
Stream size : 8.27 GiB (95%)
Default : Yes
Forced : No
Color range : Limited
Color primaries : BT.709
Transfer characteristics : BT.709
Matrix coefficients : BT.709

Princess Cup Final 2021

Audio
ID : 2
Format : AAC LC
Format/Info : Advanced Audio
Codec ID : A_AAC-2
Duration : 2 h 26 min
Bit rate : 384 kb/s
Channel(s) : 2 channels
Channel layout : L R
Sampling rate : 48.0 kHz
Frame rate : 46.875 FPS (1024 SPF)
Compression mode : Lossy
Delay relative to video : 17 ms
Stream size : 399 MiB (5%)
Default : Yes
Forced : No

Complete name : Tokyo.Joshi.Pro.2021.08.15.8th.Tokyo.Princess.Cup.Final.JAPANESE.720p.WEB.h264-LATE.mkv
Format : Matroska
Format version : Version 4
File size : 3.73 GiB
Duration : 2 h 26 min
Overall bit rate mode : Variable
Overall bit rate : 3 645 kb/s

Princess Cup Final 2021

Video
ID : 1
Format : AVC
Format/Info : Advanced Video
Duration : 2 h 26 min
Bit rate mode : Variable
Bit rate : 3 453 kb/s
Maximum bit rate : 8 000 kb/s
Width : 1 280 pixels
Height : 720 pixels
Display aspect ratio : 16:9
Frame rate mode : Constant
Frame rate : 29.970 (30000/1001) FPS
Color space : YUV
Chroma subsampling : 4:2:0
Bit depth : 8 bits
Scan type : Progressive
Bits/(Pixel*Frame) : 0.125
Stream size : 3.53 GiB (95%)
Default : Yes
Forced : No
Color range : Limited
Color primaries : BT.709
Transfer characteristics : BT.709
Matrix coefficients : BT.709

Princess Cup Final 2021

Audio
ID : 2
Format : AAC LC
Format/Info : Advanced Audio
Codec ID : A_AAC-2
Duration : 2 h 26 min
Bit rate : 192 kb/s
Channel(s) : 2 channels
Channel layout : L R
Sampling rate : 48.0 kHz
Frame rate : 46.875 FPS (1024 SPF)
Compression mode : Lossy
Delay relative to video : 17 ms
Stream size : 198 MiB (5%)
Default : Yes
Forced : No

Princess Cup Final 2021

 
Complete name : Tokyo.Joshi.Pro.2021.08.15.8th.Tokyo.Princess.Cup.Final.JAPANESE.WEB.h264-LATE.mkv
Format : Matroska
Format version : Version 4
File size : 1.67 GiB
Duration : 2 h 26 min
Overall bit rate mode : Variable
Overall bit rate : 1 630 kb/s

Video
ID : 1
Format : AVC
Format/Info : Advanced Video
Duration : 2 h 26 min
Bit rate mode : Variable
Bit rate : 1 502 kb/s
Maximum bit rate : 4 000 kb/s
Width : 960 pixels
Height : 540 pixels
Display aspect ratio : 16:9
Frame rate mode : Constant
Frame rate : 29.970 (30000/1001) FPS
Color space : YUV
Chroma subsampling : 4:2:0
Bit depth : 8 bits
Scan type : Progressive
Bits/(Pixel*Frame) : 0.097
Stream size : 1.54 GiB (92%)
Default : Yes
Forced : No
Color range : Limited
Color primaries : BT.709
Transfer characteristics : BT.709
Matrix coefficients : BT.709

Princess Cup Final 2021

Audio
ID : 2
Format : AAC LC
Format/Info : Advanced Audio
Codec ID : A_AAC-2
Duration : 2 h 26 min
Bit rate : 125 kb/s
Channel(s) : 2 channels
Channel layout : L R
Sampling rate : 48.0 kHz
Frame rate : 46.875 FPS (1024 SPF)
Compression mode : Lossy
Delay relative to video : 17 ms
Stream size : 131 MiB (8%)
Default : Yes
Forced : No

Complete name : Tokyo.Joshi.Pro.2021.08.15.8th.Tokyo.Princess.Cup.Final.JAPANESE.1080p.WEB.h264-LATE.mkv
Format : Matroska
Format version : Version 4
File size : 8.66 GiB
Duration : 2 h 26 min
Overall bit rate mode : Variable
Overall bit rate : 8 465 kb/s

Princess Cup Final 2021

Video
ID : 1
Format : AVC
Format/Info : Advanced Video
Duration : 2 h 26 min
Bit rate mode : Variable
Bit rate : 8 081 kb/s
Maximum bit rate : 18.0 Mb/s
Width : 1 920 pixels
Height : 1 080 pixels
Display aspect ratio : 16:9
Frame rate mode : Constant
Frame rate : 29.970 (30000/1001) FPS
Color space : YUV
Chroma subsampling : 4:2:0
Bit depth : 8 bits
Scan type : Progressive
Bits/(Pixel*Frame) : 0.130
Stream size : 8.27 GiB (95%)
Default : Yes
Forced : No
Color range : Limited
Color primaries : BT.709
Transfer characteristics : BT.709
Matrix coefficients : BT.709

Princess Cup Final 2021

Audio
ID : 2
Format : AAC LC
Format/Info : Advanced Audio
Codec ID : A_AAC-2
Duration : 2 h 26 min
Bit rate : 384 kb/s
Channel(s) : 2 channels
Channel layout : L R
Sampling rate : 48.0 kHz
Frame rate : 46.875 FPS (1024 SPF)
Compression mode : Lossy
Delay relative to video : 17 ms
Stream size : 399 MiB (5%)
Default : Yes
Forced : No

Complete name : Tokyo.Joshi.Pro.2021.08.15.8th.Tokyo.Princess.Cup.Final.JAPANESE.720p.WEB.h264-LATE.mkv
Format : Matroska
Format version : Version 4
File size : 3.73 GiB
Duration : 2 h 26 min
Overall bit rate mode : Variable
Overall bit rate : 3 645 kb/s

Princess Cup Final 2021

Video
ID : 1
Format : AVC
Format/Info : Advanced Video
Duration : 2 h 26 min
Bit rate mode : Variable
Bit rate : 3 453 kb/s
Maximum bit rate : 8 000 kb/s
Width : 1 280 pixels
Height : 720 pixels
Display aspect ratio : 16:9
Frame rate mode : Constant
Frame rate : 29.970 (30000/1001) FPS
Color space : YUV
Chroma subsampling : 4:2:0
Bit depth : 8 bits
Scan type : Progressive
Bits/(Pixel*Frame) : 0.125
Stream size : 3.53 GiB (95%)
Default : Yes
Forced : No
Color range : Limited
Color primaries : BT.709
Transfer characteristics : BT.709
Matrix coefficients : BT.709

Princess Cup Final 2021

Audio
ID : 2
Format : AAC LC
Format/Info : Advanced Audio
Codec ID : A_AAC-2
Duration : 2 h 26 min
Bit rate : 192 kb/s
Channel(s) : 2 channels
Channel layout : L R
Sampling rate : 48.0 kHz
Frame rate : 46.875 FPS (1024 SPF)
Compression mode : Lossy
Delay relative to video : 17 ms
Stream size : 198 MiB (5%)
Default : Yes
Forced : No

Princess Cup Final 2021

 
Complete name : Tokyo.Joshi.Pro.2021.08.15.8th.Tokyo.Princess.Cup.Final.JAPANESE.WEB.h264-LATE.mkv
Format : Matroska
Format version : Version 4
File size : 1.67 GiB
Duration : 2 h 26 min
Overall bit rate mode : Variable
Overall bit rate : 1 630 kb/s

Video
ID : 1
Format : AVC
Format/Info : Advanced Video
Duration : 2 h 26 min
Bit rate mode : Variable
Bit rate : 1 502 kb/s
Maximum bit rate : 4 000 kb/s
Width : 960 pixels
Height : 540 pixels
Display aspect ratio : 16:9
Frame rate mode : Constant
Frame rate : 29.970 (30000/1001) FPS
Color space : YUV
Chroma subsampling : 4:2:0
Bit depth : 8 bits
Scan type : Progressive
Bits/(Pixel*Frame) : 0.097
Stream size : 1.54 GiB (92%)
Default : Yes
Forced : No
Color range : Limited
Color primaries : BT.709
Transfer characteristics : BT.709
Matrix coefficients : BT.709

Princess Cup Final 2021

Audio
ID : 2
Format : AAC LC
Format/Info : Advanced Audio
Codec ID : A_AAC-2
Duration : 2 h 26 min
Bit rate : 125 kb/s
Channel(s) : 2 channels
Channel layout : L R
Sampling rate : 48.0 kHz
Frame rate : 46.875 FPS (1024 SPF)
Compression mode : Lossy
Delay relative to video : 17 ms
Stream size : 131 MiB (8%)
Default : Yes
Forced : No

Complete name : Tokyo.Joshi.Pro.2021.08.15.8th.Tokyo.Princess.Cup.Final.JAPANESE.1080p.WEB.h264-LATE.mkv
Format : Matroska
Format version : Version 4
File size : 8.66 GiB
Duration : 2 h 26 min
Overall bit rate mode : Variable
Overall bit rate : 8 465 kb/s

Princess Cup Final 2021

Video
ID : 1
Format : AVC
Format/Info : Advanced Video
Duration : 2 h 26 min
Bit rate mode : Variable
Bit rate : 8 081 kb/s
Maximum bit rate : 18.0 Mb/s
Width : 1 920 pixels
Height : 1 080 pixels
Display aspect ratio : 16:9
Frame rate mode : Constant
Frame rate : 29.970 (30000/1001) FPS
Color space : YUV
Chroma subsampling : 4:2:0
Bit depth : 8 bits
Scan type : Progressive
Bits/(Pixel*Frame) : 0.130
Stream size : 8.27 GiB (95%)
Default : Yes
Forced : No
Color range : Limited
Color primaries : BT.709
Transfer characteristics : BT.709
Matrix coefficients : BT.709

Princess Cup Final 2021

Audio
ID : 2
Format : AAC LC
Format/Info : Advanced Audio
Codec ID : A_AAC-2
Duration : 2 h 26 min
Bit rate : 384 kb/s
Channel(s) : 2 channels
Channel layout : L R
Sampling rate : 48.0 kHz
Frame rate : 46.875 FPS (1024 SPF)
Compression mode : Lossy
Delay relative to video : 17 ms
Stream size : 399 MiB (5%)
Default : Yes
Forced : No

Complete name : Tokyo.Joshi.Pro.2021.08.15.8th.Tokyo.Princess.Cup.Final.JAPANESE.720p.WEB.h264-LATE.mkv
Format : Matroska
Format version : Version 4
File size : 3.73 GiB
Duration : 2 h 26 min
Overall bit rate mode : Variable
Overall bit rate : 3 645 kb/s

Princess Cup Final 2021

Video
ID : 1
Format : AVC
Format/Info : Advanced Video
Duration : 2 h 26 min
Bit rate mode : Variable
Bit rate : 3 453 kb/s
Maximum bit rate : 8 000 kb/s
Width : 1 280 pixels
Height : 720 pixels
Display aspect ratio : 16:9
Frame rate mode : Constant
Frame rate : 29.970 (30000/1001) FPS
Color space : YUV
Chroma subsampling : 4:2:0
Bit depth : 8 bits
Scan type : Progressive
Bits/(Pixel*Frame) : 0.125
Stream size : 3.53 GiB (95%)
Default : Yes
Forced : No
Color range : Limited
Color primaries : BT.709
Transfer characteristics : BT.709
Matrix coefficients : BT.709

Princess Cup Final 2021

Audio
ID : 2
Format : AAC LC
Format/Info : Advanced Audio
Codec ID : A_AAC-2
Duration : 2 h 26 min
Bit rate : 192 kb/s
Channel(s) : 2 channels
Channel layout : L R
Sampling rate : 48.0 kHz
Frame rate : 46.875 FPS (1024 SPF)
Compression mode : Lossy
Delay relative to video : 17 ms
Stream size : 198 MiB (5%)
Default : Yes
Forced : No

Princess Cup Final 2021

 
Complete name : Tokyo.Joshi.Pro.2021.08.15.8th.Tokyo.Princess.Cup.Final.JAPANESE.WEB.h264-LATE.mkv
Format : Matroska
Format version : Version 4
File size : 1.67 GiB
Duration : 2 h 26 min
Overall bit rate mode : Variable
Overall bit rate : 1 630 kb/s

Video
ID : 1
Format : AVC
Format/Info : Advanced Video
Duration : 2 h 26 min
Bit rate mode : Variable
Bit rate : 1 502 kb/s
Maximum bit rate : 4 000 kb/s
Width : 960 pixels
Height : 540 pixels
Display aspect ratio : 16:9
Frame rate mode : Constant
Frame rate : 29.970 (30000/1001) FPS
Color space : YUV
Chroma subsampling : 4:2:0
Bit depth : 8 bits
Scan type : Progressive
Bits/(Pixel*Frame) : 0.097
Stream size : 1.54 GiB (92%)
Default : Yes
Forced : No
Color range : Limited
Color primaries : BT.709
Transfer characteristics : BT.709
Matrix coefficients : BT.709

Princess Cup Final 2021

Audio
ID : 2
Format : AAC LC
Format/Info : Advanced Audio
Codec ID : A_AAC-2
Duration : 2 h 26 min
Bit rate : 125 kb/s
Channel(s) : 2 channels
Channel layout : L R
Sampling rate : 48.0 kHz
Frame rate : 46.875 FPS (1024 SPF)
Compression mode : Lossy
Delay relative to video : 17 ms
Stream size : 131 MiB (8%)
Default : Yes
Forced : No

Complete name : Tokyo.Joshi.Pro.2021.08.15.8th.Tokyo.Princess.Cup.Final.JAPANESE.1080p.WEB.h264-LATE.mkv
Format : Matroska
Format version : Version 4
File size : 8.66 GiB
Duration : 2 h 26 min
Overall bit rate mode : Variable
Overall bit rate : 8 465 kb/s

Princess Cup Final 2021

Video
ID : 1
Format : AVC
Format/Info : Advanced Video
Duration : 2 h 26 min
Bit rate mode : Variable
Bit rate : 8 081 kb/s
Maximum bit rate : 18.0 Mb/s
Width : 1 920 pixels
Height : 1 080 pixels
Display aspect ratio : 16:9
Frame rate mode : Constant
Frame rate : 29.970 (30000/1001) FPS
Color space : YUV
Chroma subsampling : 4:2:0
Bit depth : 8 bits
Scan type : Progressive
Bits/(Pixel*Frame) : 0.130
Stream size : 8.27 GiB (95%)
Default : Yes
Forced : No
Color range : Limited
Color primaries : BT.709
Transfer characteristics : BT.709
Matrix coefficients : BT.709

Princess Cup Final 2021

Audio
ID : 2
Format : AAC LC
Format/Info : Advanced Audio
Codec ID : A_AAC-2
Duration : 2 h 26 min
Bit rate : 384 kb/s
Channel(s) : 2 channels
Channel layout : L R
Sampling rate : 48.0 kHz
Frame rate : 46.875 FPS (1024 SPF)
Compression mode : Lossy
Delay relative to video : 17 ms
Stream size : 399 MiB (5%)
Default : Yes
Forced : No

Complete name : Tokyo.Joshi.Pro.2021.08.15.8th.Tokyo.Princess.Cup.Final.JAPANESE.720p.WEB.h264-LATE.mkv
Format : Matroska
Format version : Version 4
File size : 3.73 GiB
Duration : 2 h 26 min
Overall bit rate mode : Variable
Overall bit rate : 3 645 kb/s

Princess Cup Final 2021

Video
ID : 1
Format : AVC
Format/Info : Advanced Video
Duration : 2 h 26 min
Bit rate mode : Variable
Bit rate : 3 453 kb/s
Maximum bit rate : 8 000 kb/s
Width : 1 280 pixels
Height : 720 pixels
Display aspect ratio : 16:9
Frame rate mode : Constant
Frame rate : 29.970 (30000/1001) FPS
Color space : YUV
Chroma subsampling : 4:2:0
Bit depth : 8 bits
Scan type : Progressive
Bits/(Pixel*Frame) : 0.125
Stream size : 3.53 GiB (95%)
Default : Yes
Forced : No
Color range : Limited
Color primaries : BT.709
Transfer characteristics : BT.709
Matrix coefficients : BT.709

Princess Cup Final 2021

Audio
ID : 2
Format : AAC LC
Format/Info : Advanced Audio
Codec ID : A_AAC-2
Duration : 2 h 26 min
Bit rate : 192 kb/s
Channel(s) : 2 channels
Channel layout : L R
Sampling rate : 48.0 kHz
Frame rate : 46.875 FPS (1024 SPF)
Compression mode : Lossy
Delay relative to video : 17 ms
Stream size : 198 MiB (5%)
Default : Yes
Forced : No

Princess Cup Final 2021

 
Complete name : Tokyo.Joshi.Pro.2021.08.15.8th.Tokyo.Princess.Cup.Final.JAPANESE.WEB.h264-LATE.mkv
Format : Matroska
Format version : Version 4
File size : 1.67 GiB
Duration : 2 h 26 min
Overall bit rate mode : Variable
Overall bit rate : 1 630 kb/s

Video
ID : 1
Format : AVC
Format/Info : Advanced Video
Duration : 2 h 26 min
Bit rate mode : Variable
Bit rate : 1 502 kb/s
Maximum bit rate : 4 000 kb/s
Width : 960 pixels
Height : 540 pixels
Display aspect ratio : 16:9
Frame rate mode : Constant
Frame rate : 29.970 (30000/1001) FPS
Color space : YUV
Chroma subsampling : 4:2:0
Bit depth : 8 bits
Scan type : Progressive
Bits/(Pixel*Frame) : 0.097
Stream size : 1.54 GiB (92%)
Default : Yes
Forced : No
Color range : Limited
Color primaries : BT.709
Transfer characteristics : BT.709
Matrix coefficients : BT.709

Princess Cup Final 2021

Audio
ID : 2
Format : AAC LC
Format/Info : Advanced Audio
Codec ID : A_AAC-2
Duration : 2 h 26 min
Bit rate : 125 kb/s
Channel(s) : 2 channels
Channel layout : L R
Sampling rate : 48.0 kHz
Frame rate : 46.875 FPS (1024 SPF)
Compression mode : Lossy
Delay relative to video : 17 ms
Stream size : 131 MiB (8%)
Default : Yes
Forced : No

Complete name : Tokyo.Joshi.Pro.2021.08.15.8th.Tokyo.Princess.Cup.Final.JAPANESE.1080p.WEB.h264-LATE.mkv
Format : Matroska
Format version : Version 4
File size : 8.66 GiB
Duration : 2 h 26 min
Overall bit rate mode : Variable
Overall bit rate : 8 465 kb/s

Princess Cup Final 2021

Video
ID : 1
Format : AVC
Format/Info : Advanced Video
Duration : 2 h 26 min
Bit rate mode : Variable
Bit rate : 8 081 kb/s
Maximum bit rate : 18.0 Mb/s
Width : 1 920 pixels
Height : 1 080 pixels
Display aspect ratio : 16:9
Frame rate mode : Constant
Frame rate : 29.970 (30000/1001) FPS
Color space : YUV
Chroma subsampling : 4:2:0
Bit depth : 8 bits
Scan type : Progressive
Bits/(Pixel*Frame) : 0.130
Stream size : 8.27 GiB (95%)
Default : Yes
Forced : No
Color range : Limited
Color primaries : BT.709
Transfer characteristics : BT.709
Matrix coefficients : BT.709

Princess Cup Final 2021

Audio
ID : 2
Format : AAC LC
Format/Info : Advanced Audio
Codec ID : A_AAC-2
Duration : 2 h 26 min
Bit rate : 384 kb/s
Channel(s) : 2 channels
Channel layout : L R
Sampling rate : 48.0 kHz
Frame rate : 46.875 FPS (1024 SPF)
Compression mode : Lossy
Delay relative to video : 17 ms
Stream size : 399 MiB (5%)
Default : Yes
Forced : No

Complete name : Tokyo.Joshi.Pro.2021.08.15.8th.Tokyo.Princess.Cup.Final.JAPANESE.720p.WEB.h264-LATE.mkv
Format : Matroska
Format version : Version 4
File size : 3.73 GiB
Duration : 2 h 26 min
Overall bit rate mode : Variable
Overall bit rate : 3 645 kb/s

Princess Cup Final 2021

Video
ID : 1
Format : AVC
Format/Info : Advanced Video
Duration : 2 h 26 min
Bit rate mode : Variable
Bit rate : 3 453 kb/s
Maximum bit rate : 8 000 kb/s
Width : 1 280 pixels
Height : 720 pixels
Display aspect ratio : 16:9
Frame rate mode : Constant
Frame rate : 29.970 (30000/1001) FPS
Color space : YUV
Chroma subsampling : 4:2:0
Bit depth : 8 bits
Scan type : Progressive
Bits/(Pixel*Frame) : 0.125
Stream size : 3.53 GiB (95%)
Default : Yes
Forced : No
Color range : Limited
Color primaries : BT.709
Transfer characteristics : BT.709
Matrix coefficients : BT.709

Princess Cup Final 2021

Audio
ID : 2
Format : AAC LC
Format/Info : Advanced Audio
Codec ID : A_AAC-2
Duration : 2 h 26 min
Bit rate : 192 kb/s
Channel(s) : 2 channels
Channel layout : L R
Sampling rate : 48.0 kHz
Frame rate : 46.875 FPS (1024 SPF)
Compression mode : Lossy
Delay relative to video : 17 ms
Stream size : 198 MiB (5%)
Default : Yes
Forced : No

Princess Cup Final 2021

 
Complete name : Tokyo.Joshi.Pro.2021.08.15.8th.Tokyo.Princess.Cup.Final.JAPANESE.WEB.h264-LATE.mkv
Format : Matroska
Format version : Version 4
File size : 1.67 GiB
Duration : 2 h 26 min
Overall bit rate mode : Variable
Overall bit rate : 1 630 kb/s

Video
ID : 1
Format : AVC
Format/Info : Advanced Video
Duration : 2 h 26 min
Bit rate mode : Variable
Bit rate : 1 502 kb/s
Maximum bit rate : 4 000 kb/s
Width : 960 pixels
Height : 540 pixels
Display aspect ratio : 16:9
Frame rate mode : Constant
Frame rate : 29.970 (30000/1001) FPS
Color space : YUV
Chroma subsampling : 4:2:0
Bit depth : 8 bits
Scan type : Progressive
Bits/(Pixel*Frame) : 0.097
Stream size : 1.54 GiB (92%)
Default : Yes
Forced : No
Color range : Limited
Color primaries : BT.709
Transfer characteristics : BT.709
Matrix coefficients : BT.709

Princess Cup Final 2021

Audio
ID : 2
Format : AAC LC
Format/Info : Advanced Audio
Codec ID : A_AAC-2
Duration : 2 h 26 min
Bit rate : 125 kb/s
Channel(s) : 2 channels
Channel layout : L R
Sampling rate : 48.0 kHz
Frame rate : 46.875 FPS (1024 SPF)
Compression mode : Lossy
Delay relative to video : 17 ms
Stream size : 131 MiB (8%)
Default : Yes
Forced : No

Complete name : Tokyo.Joshi.Pro.2021.08.15.8th.Tokyo.Princess.Cup.Final.JAPANESE.1080p.WEB.h264-LATE.mkv
Format : Matroska
Format version : Version 4
File size : 8.66 GiB
Duration : 2 h 26 min
Overall bit rate mode : Variable
Overall bit rate : 8 465 kb/s

Princess Cup Final 2021

Video
ID : 1
Format : AVC
Format/Info : Advanced Video
Duration : 2 h 26 min
Bit rate mode : Variable
Bit rate : 8 081 kb/s
Maximum bit rate : 18.0 Mb/s
Width : 1 920 pixels
Height : 1 080 pixels
Display aspect ratio : 16:9
Frame rate mode : Constant
Frame rate : 29.970 (30000/1001) FPS
Color space : YUV
Chroma subsampling : 4:2:0
Bit depth : 8 bits
Scan type : Progressive
Bits/(Pixel*Frame) : 0.130
Stream size : 8.27 GiB (95%)
Default : Yes
Forced : No
Color range : Limited
Color primaries : BT.709
Transfer characteristics : BT.709
Matrix coefficients : BT.709

Princess Cup Final 2021

Audio
ID : 2
Format : AAC LC
Format/Info : Advanced Audio
Codec ID : A_AAC-2
Duration : 2 h 26 min
Bit rate : 384 kb/s
Channel(s) : 2 channels
Channel layout : L R
Sampling rate : 48.0 kHz
Frame rate : 46.875 FPS (1024 SPF)
Compression mode : Lossy
Delay relative to video : 17 ms
Stream size : 399 MiB (5%)
Default : Yes
Forced : No

Complete name : Tokyo.Joshi.Pro.2021.08.15.8th.Tokyo.Princess.Cup.Final.JAPANESE.720p.WEB.h264-LATE.mkv
Format : Matroska
Format version : Version 4
File size : 3.73 GiB
Duration : 2 h 26 min
Overall bit rate mode : Variable
Overall bit rate : 3 645 kb/s

Princess Cup Final 2021

Video
ID : 1
Format : AVC
Format/Info : Advanced Video
Duration : 2 h 26 min
Bit rate mode : Variable
Bit rate : 3 453 kb/s
Maximum bit rate : 8 000 kb/s
Width : 1 280 pixels
Height : 720 pixels
Display aspect ratio : 16:9
Frame rate mode : Constant
Frame rate : 29.970 (30000/1001) FPS
Color space : YUV
Chroma subsampling : 4:2:0
Bit depth : 8 bits
Scan type : Progressive
Bits/(Pixel*Frame) : 0.125
Stream size : 3.53 GiB (95%)
Default : Yes
Forced : No
Color range : Limited
Color primaries : BT.709
Transfer characteristics : BT.709
Matrix coefficients : BT.709

Princess Cup Final 2021

Audio
ID : 2
Format : AAC LC
Format/Info : Advanced Audio
Codec ID : A_AAC-2
Duration : 2 h 26 min
Bit rate : 192 kb/s
Channel(s) : 2 channels
Channel layout : L R
Sampling rate : 48.0 kHz
Frame rate : 46.875 FPS (1024 SPF)
Compression mode : Lossy
Delay relative to video : 17 ms
Stream size : 198 MiB (5%)
Default : Yes
Forced : No

Princess Cup Final 2021

 
Complete name : Tokyo.Joshi.Pro.2021.08.15.8th.Tokyo.Princess.Cup.Final.JAPANESE.WEB.h264-LATE.mkv
Format : Matroska
Format version : Version 4
File size : 1.67 GiB
Duration : 2 h 26 min
Overall bit rate mode : Variable
Overall bit rate : 1 630 kb/s

Video
ID : 1
Format : AVC
Format/Info : Advanced Video
Duration : 2 h 26 min
Bit rate mode : Variable
Bit rate : 1 502 kb/s
Maximum bit rate : 4 000 kb/s
Width : 960 pixels
Height : 540 pixels
Display aspect ratio : 16:9
Frame rate mode : Constant
Frame rate : 29.970 (30000/1001) FPS
Color space : YUV
Chroma subsampling : 4:2:0
Bit depth : 8 bits
Scan type : Progressive
Bits/(Pixel*Frame) : 0.097
Stream size : 1.54 GiB (92%)
Default : Yes
Forced : No
Color range : Limited
Color primaries : BT.709
Transfer characteristics : BT.709
Matrix coefficients : BT.709

Princess Cup Final 2021

Audio
ID : 2
Format : AAC LC
Format/Info : Advanced Audio
Codec ID : A_AAC-2
Duration : 2 h 26 min
Bit rate : 125 kb/s
Channel(s) : 2 channels
Channel layout : L R
Sampling rate : 48.0 kHz
Frame rate : 46.875 FPS (1024 SPF)
Compression mode : Lossy
Delay relative to video : 17 ms
Stream size : 131 MiB (8%)
Default : Yes
Forced : No

Complete name : Tokyo.Joshi.Pro.2021.08.15.8th.Tokyo.Princess.Cup.Final.JAPANESE.1080p.WEB.h264-LATE.mkv
Format : Matroska
Format version : Version 4
File size : 8.66 GiB
Duration : 2 h 26 min
Overall bit rate mode : Variable
Overall bit rate : 8 465 kb/s

Princess Cup Final 2021

Video
ID : 1
Format : AVC
Format/Info : Advanced Video
Duration : 2 h 26 min
Bit rate mode : Variable
Bit rate : 8 081 kb/s
Maximum bit rate : 18.0 Mb/s
Width : 1 920 pixels
Height : 1 080 pixels
Display aspect ratio : 16:9
Frame rate mode : Constant
Frame rate : 29.970 (30000/1001) FPS
Color space : YUV
Chroma subsampling : 4:2:0
Bit depth : 8 bits
Scan type : Progressive
Bits/(Pixel*Frame) : 0.130
Stream size : 8.27 GiB (95%)
Default : Yes
Forced : No
Color range : Limited
Color primaries : BT.709
Transfer characteristics : BT.709
Matrix coefficients : BT.709

Princess Cup Final 2021

Audio
ID : 2
Format : AAC LC
Format/Info : Advanced Audio
Codec ID : A_AAC-2
Duration : 2 h 26 min
Bit rate : 384 kb/s
Channel(s) : 2 channels
Channel layout : L R
Sampling rate : 48.0 kHz
Frame rate : 46.875 FPS (1024 SPF)
Compression mode : Lossy
Delay relative to video : 17 ms
Stream size : 399 MiB (5%)
Default : Yes
Forced : No

Complete name : Tokyo.Joshi.Pro.2021.08.15.8th.Tokyo.Princess.Cup.Final.JAPANESE.720p.WEB.h264-LATE.mkv
Format : Matroska
Format version : Version 4
File size : 3.73 GiB
Duration : 2 h 26 min
Overall bit rate mode : Variable
Overall bit rate : 3 645 kb/s

Princess Cup Final 2021

Video
ID : 1
Format : AVC
Format/Info : Advanced Video
Duration : 2 h 26 min
Bit rate mode : Variable
Bit rate : 3 453 kb/s
Maximum bit rate : 8 000 kb/s
Width : 1 280 pixels
Height : 720 pixels
Display aspect ratio : 16:9
Frame rate mode : Constant
Frame rate : 29.970 (30000/1001) FPS
Color space : YUV
Chroma subsampling : 4:2:0
Bit depth : 8 bits
Scan type : Progressive
Bits/(Pixel*Frame) : 0.125
Stream size : 3.53 GiB (95%)
Default : Yes
Forced : No
Color range : Limited
Color primaries : BT.709
Transfer characteristics : BT.709
Matrix coefficients : BT.709

Princess Cup Final 2021

Audio
ID : 2
Format : AAC LC
Format/Info : Advanced Audio
Codec ID : A_AAC-2
Duration : 2 h 26 min
Bit rate : 192 kb/s
Channel(s) : 2 channels
Channel layout : L R
Sampling rate : 48.0 kHz
Frame rate : 46.875 FPS (1024 SPF)
Compression mode : Lossy
Delay relative to video : 17 ms
Stream size : 198 MiB (5%)
Default : Yes
Forced : No

Princess Cup Final 2021

 
Complete name : Tokyo.Joshi.Pro.2021.08.15.8th.Tokyo.Princess.Cup.Final.JAPANESE.WEB.h264-LATE.mkv
Format : Matroska
Format version : Version 4
File size : 1.67 GiB
Duration : 2 h 26 min
Overall bit rate mode : Variable
Overall bit rate : 1 630 kb/s

Video
ID : 1
Format : AVC
Format/Info : Advanced Video
Duration : 2 h 26 min
Bit rate mode : Variable
Bit rate : 1 502 kb/s
Maximum bit rate : 4 000 kb/s
Width : 960 pixels
Height : 540 pixels
Display aspect ratio : 16:9
Frame rate mode : Constant
Frame rate : 29.970 (30000/1001) FPS
Color space : YUV
Chroma subsampling : 4:2:0
Bit depth : 8 bits
Scan type : Progressive
Bits/(Pixel*Frame) : 0.097
Stream size : 1.54 GiB (92%)
Default : Yes
Forced : No
Color range : Limited
Color primaries : BT.709
Transfer characteristics : BT.709
Matrix coefficients : BT.709

Princess Cup Final 2021

Audio
ID : 2
Format : AAC LC
Format/Info : Advanced Audio
Codec ID : A_AAC-2
Duration : 2 h 26 min
Bit rate : 125 kb/s
Channel(s) : 2 channels
Channel layout : L R
Sampling rate : 48.0 kHz
Frame rate : 46.875 FPS (1024 SPF)
Compression mode : Lossy
Delay relative to video : 17 ms
Stream size : 131 MiB (8%)
Default : Yes
Forced : No

Complete name : Tokyo.Joshi.Pro.2021.08.15.8th.Tokyo.Princess.Cup.Final.JAPANESE.1080p.WEB.h264-LATE.mkv
Format : Matroska
Format version : Version 4
File size : 8.66 GiB
Duration : 2 h 26 min
Overall bit rate mode : Variable
Overall bit rate : 8 465 kb/s

Princess Cup Final 2021

Video
ID : 1
Format : AVC
Format/Info : Advanced Video
Duration : 2 h 26 min
Bit rate mode : Variable
Bit rate : 8 081 kb/s
Maximum bit rate : 18.0 Mb/s
Width : 1 920 pixels
Height : 1 080 pixels
Display aspect ratio : 16:9
Frame rate mode : Constant
Frame rate : 29.970 (30000/1001) FPS
Color space : YUV
Chroma subsampling : 4:2:0
Bit depth : 8 bits
Scan type : Progressive
Bits/(Pixel*Frame) : 0.130
Stream size : 8.27 GiB (95%)
Default : Yes
Forced : No
Color range : Limited
Color primaries : BT.709
Transfer characteristics : BT.709
Matrix coefficients : BT.709

Princess Cup Final 2021

Audio
ID : 2
Format : AAC LC
Format/Info : Advanced Audio
Codec ID : A_AAC-2
Duration : 2 h 26 min
Bit rate : 384 kb/s
Channel(s) : 2 channels
Channel layout : L R
Sampling rate : 48.0 kHz
Frame rate : 46.875 FPS (1024 SPF)
Compression mode : Lossy
Delay relative to video : 17 ms
Stream size : 399 MiB (5%)
Default : Yes
Forced : No

Complete name : Tokyo.Joshi.Pro.2021.08.15.8th.Tokyo.Princess.Cup.Final.JAPANESE.720p.WEB.h264-LATE.mkv
Format : Matroska
Format version : Version 4
File size : 3.73 GiB
Duration : 2 h 26 min
Overall bit rate mode : Variable
Overall bit rate : 3 645 kb/s

Princess Cup Final 2021

Video
ID : 1
Format : AVC
Format/Info : Advanced Video
Duration : 2 h 26 min
Bit rate mode : Variable
Bit rate : 3 453 kb/s
Maximum bit rate : 8 000 kb/s
Width : 1 280 pixels
Height : 720 pixels
Display aspect ratio : 16:9
Frame rate mode : Constant
Frame rate : 29.970 (30000/1001) FPS
Color space : YUV
Chroma subsampling : 4:2:0
Bit depth : 8 bits
Scan type : Progressive
Bits/(Pixel*Frame) : 0.125
Stream size : 3.53 GiB (95%)
Default : Yes
Forced : No
Color range : Limited
Color primaries : BT.709
Transfer characteristics : BT.709
Matrix coefficients : BT.709

Princess Cup Final 2021

Audio
ID : 2
Format : AAC LC
Format/Info : Advanced Audio
Codec ID : A_AAC-2
Duration : 2 h 26 min
Bit rate : 192 kb/s
Channel(s) : 2 channels
Channel layout : L R
Sampling rate : 48.0 kHz
Frame rate : 46.875 FPS (1024 SPF)
Compression mode : Lossy
Delay relative to video : 17 ms
Stream size : 198 MiB (5%)
Default : Yes
Forced : No

Princess Cup Final 2021

 

[collapse]

 

 

https://dx-tv.com/

Leave a Reply

Your email address will not be published. Required fields are marked *

This site uses Akismet to reduce spam. Learn how your comment data is processed.