TJPW 8th Tokyo Princess Cup Final 2021 07 31 Online Free

TJPW 8th Tokyo Princess Cup Final 2021 07 31 Online Free Replay DX-TV

TJPW 8th Tokyo Princess Cup Final 2021

 TJPW 8th Tokyo Princess Cup Final 2021

 

 

 

Download Links with premium High Speed


Dopapk

 

 

Show Links

 

http://shrt10.com/359DD
http://shrt10.com/4i1OA
http://shrt10.com/VA917J4R

 

[collapse]

 

 

Nitroflare

 

 

Show Links

 

http://shrt10.com/Xiah2c23P
http://shrt10.com/I25EK05H4
http://shrt10.com/VzO8Z

 

[collapse]

 

 

Rapidgator

 

 

Show Links

 

http://shrt10.com/uQ0yHo
http://shrt10.com/LyXe7
http://shrt10.com/YrDyf8p0

 

[collapse]

 

 

Uploaded

 

 

Show Links

 

http://shrt10.com/IEypxl02U
http://shrt10.com/Xc6ck40

 

[collapse]

 

 

Watch online

 

Server 1

 

 

 

 

TJPW 8th Tokyo Princess Cup Final 2021

 

 

 

 

Server-2

 

 

 

 

watch now

 

 

 

|Server-3

 

 

 

 

watch now

 

 

Uploaded By Site DX-TV.com

 

 

Show Info This Show

TJPW 8th Tokyo Princess Cup Final 2021

 

Complete name : Tokyo.Joshi.Pro.2021.07.31.8th.Tokyo.Princess.Cup.Final.WEB.h264-LATE.mkv
Format : Matroska
Format version : Version 4
File size : 1.26 GiB
Duration : 2 h 14 min
Overall bit rate mode : Variable
Overall bit rate : 1 347 kb/s

Video
ID : 1
Format : AVC
Format/Info : Advanced Video
Duration : 2 h 14 min
Bit rate mode : Variable
Bit rate : 1 219 kb/s
Maximum bit rate : 4 000 kb/s
Width : 960 pixels
Height : 540 pixels
Display aspect ratio : 16:9
Frame rate mode : Constant
Frame rate : 29.970 (30000/1001) FPS
Color space : YUV
Chroma subsampling : 4:2:0
Bit depth : 8 bits
Scan type : Progressive
Bits/(Pixel*Frame) : 0.078
Stream size : 1.14 GiB (90%)
Default : Yes
Forced : No
Color range : Limited
Color primaries : BT.709
Transfer characteristics : BT.709
Matrix coefficients : BT.709

TJPW 8th Tokyo Princess Cup Final 2021

Audio
ID : 2
Format : AAC LC
Format/Info : Advanced Audio
Codec ID : A_AAC-2
Duration : 2 h 14 min
Bit rate : 125 kb/s
Channel(s) : 2 channels
Channel layout : L R
Sampling rate : 48.0 kHz
Frame rate : 46.875 FPS (1024 SPF)
Compression mode : Lossy
Delay relative to video : 7 ms
Stream size : 121 MiB (9%)
Default : Yes
Forced : No

Complete name : Tokyo.Joshi.Pro.2021.07.31.8th.Tokyo.Princess.Cup.Final.720p.WEB.h264-LATE.mkv
Format : Matroska
Format version : Version 4
File size : 2.84 GiB
Duration : 2 h 14 min
Overall bit rate mode : Variable
Overall bit rate : 3 020 kb/s

TJPW 8th Tokyo Princess Cup Final 2021

Video
ID : 1
Format : AVC
Format/Info : Advanced Video
Duration : 2 h 14 min
Bit rate mode : Variable
Bit rate : 2 828 kb/s
Maximum bit rate : 8 000 kb/s
Width : 1 280 pixels
Height : 720 pixels
Display aspect ratio : 16:9
Frame rate mode : Constant
Frame rate : 29.970 (30000/1001) FPS
Color space : YUV
Chroma subsampling : 4:2:0
Bit depth : 8 bits
Scan type : Progressive
Bits/(Pixel*Frame) : 0.102
Stream size : 2.66 GiB (94%)
Default : Yes
Forced : No
Color range : Limited
Color primaries : BT.709
Transfer characteristics : BT.709
Matrix coefficients : BT.709

TJPW 8th Tokyo Princess Cup Final 2021

Audio
ID : 2
Format : AAC LC
Format/Info : Advanced Audio
Codec ID : A_AAC-2
Duration : 2 h 14 min
Bit rate : 192 kb/s
Channel(s) : 2 channels
Channel layout : L R
Sampling rate : 48.0 kHz
Frame rate : 46.875 FPS (1024 SPF)
Compression mode : Lossy
Delay relative to video : 7 ms
Stream size : 182 MiB (6%)
Default : Yes
Forced : No

Complete name : Tokyo.Joshi.Pro.2021.07.31.8th.Tokyo.Princess.Cup.Final.1080p.WEB.h264-LATE.mkv
Format : Matroska
Format version : Version 4
File size : 6.75 GiB
Duration : 2 h 14 min
Overall bit rate mode : Variable
Overall bit rate : 7 192 kb/s

TJPW 8th Tokyo Princess Cup Final 2021

Video
ID : 1
Format : AVC
Format/Info : Advanced Video
Duration : 2 h 14 min
Bit rate mode : Variable
Bit rate : 6 808 kb/s
Maximum bit rate : 18.0 Mb/s
Width : 1 920 pixels
Height : 1 080 pixels
Display aspect ratio : 16:9
Frame rate mode : Constant
Frame rate : 29.970 (30000/1001) FPS
Color space : YUV
Chroma subsampling : 4:2:0
Bit depth : 8 bits
Scan type : Progressive
Bits/(Pixel*Frame) : 0.110
Stream size : 6.39 GiB (95%)
Default : Yes
Forced : No
Color range : Limited
Color primaries : BT.709
Transfer characteristics : BT.709
Matrix coefficients : BT.709

TJPW 8th Tokyo Princess Cup Final 2021

Audio
ID : 2
Format : AAC LC
Format/Info : Advanced Audio
Codec ID : A_AAC-2
Duration : 2 h 14 min
Bit rate : 384 kb/s
Channel(s) : 2 channels
Channel layout : L R
Sampling rate : 48.0 kHz
Frame rate : 46.875 FPS (1024 SPF)
Compression mode : Lossy
Delay relative to video : 7 ms
Stream size : 367 MiB (5%)
Default : Yes
Forced : No

TJPW 8th Tokyo Princess Cup Final 2021

Complete name : Tokyo.Joshi.Pro.2021.07.31.8th.Tokyo.Princess.Cup.Final.WEB.h264-LATE.mkv
Format : Matroska
Format version : Version 4
File size : 1.26 GiB
Duration : 2 h 14 min
Overall bit rate mode : Variable
Overall bit rate : 1 347 kb/s

Video
ID : 1
Format : AVC
Format/Info : Advanced Video
Duration : 2 h 14 min
Bit rate mode : Variable
Bit rate : 1 219 kb/s
Maximum bit rate : 4 000 kb/s
Width : 960 pixels
Height : 540 pixels
Display aspect ratio : 16:9
Frame rate mode : Constant
Frame rate : 29.970 (30000/1001) FPS
Color space : YUV
Chroma subsampling : 4:2:0
Bit depth : 8 bits
Scan type : Progressive
Bits/(Pixel*Frame) : 0.078
Stream size : 1.14 GiB (90%)
Default : Yes
Forced : No
Color range : Limited
Color primaries : BT.709
Transfer characteristics : BT.709
Matrix coefficients : BT.709

TJPW 8th Tokyo Princess Cup Final 2021

Audio
ID : 2
Format : AAC LC
Format/Info : Advanced Audio
Codec ID : A_AAC-2
Duration : 2 h 14 min
Bit rate : 125 kb/s
Channel(s) : 2 channels
Channel layout : L R
Sampling rate : 48.0 kHz
Frame rate : 46.875 FPS (1024 SPF)
Compression mode : Lossy
Delay relative to video : 7 ms
Stream size : 121 MiB (9%)
Default : Yes
Forced : No

Complete name : Tokyo.Joshi.Pro.2021.07.31.8th.Tokyo.Princess.Cup.Final.720p.WEB.h264-LATE.mkv
Format : Matroska
Format version : Version 4
File size : 2.84 GiB
Duration : 2 h 14 min
Overall bit rate mode : Variable
Overall bit rate : 3 020 kb/s

TJPW 8th Tokyo Princess Cup Final 2021

Video
ID : 1
Format : AVC
Format/Info : Advanced Video
Duration : 2 h 14 min
Bit rate mode : Variable
Bit rate : 2 828 kb/s
Maximum bit rate : 8 000 kb/s
Width : 1 280 pixels
Height : 720 pixels
Display aspect ratio : 16:9
Frame rate mode : Constant
Frame rate : 29.970 (30000/1001) FPS
Color space : YUV
Chroma subsampling : 4:2:0
Bit depth : 8 bits
Scan type : Progressive
Bits/(Pixel*Frame) : 0.102
Stream size : 2.66 GiB (94%)
Default : Yes
Forced : No
Color range : Limited
Color primaries : BT.709
Transfer characteristics : BT.709
Matrix coefficients : BT.709

TJPW 8th Tokyo Princess Cup Final 2021

Audio
ID : 2
Format : AAC LC
Format/Info : Advanced Audio
Codec ID : A_AAC-2
Duration : 2 h 14 min
Bit rate : 192 kb/s
Channel(s) : 2 channels
Channel layout : L R
Sampling rate : 48.0 kHz
Frame rate : 46.875 FPS (1024 SPF)
Compression mode : Lossy
Delay relative to video : 7 ms
Stream size : 182 MiB (6%)
Default : Yes
Forced : No

Complete name : Tokyo.Joshi.Pro.2021.07.31.8th.Tokyo.Princess.Cup.Final.1080p.WEB.h264-LATE.mkv
Format : Matroska
Format version : Version 4
File size : 6.75 GiB
Duration : 2 h 14 min
Overall bit rate mode : Variable
Overall bit rate : 7 192 kb/s

TJPW 8th Tokyo Princess Cup Final 2021

Video
ID : 1
Format : AVC
Format/Info : Advanced Video
Duration : 2 h 14 min
Bit rate mode : Variable
Bit rate : 6 808 kb/s
Maximum bit rate : 18.0 Mb/s
Width : 1 920 pixels
Height : 1 080 pixels
Display aspect ratio : 16:9
Frame rate mode : Constant
Frame rate : 29.970 (30000/1001) FPS
Color space : YUV
Chroma subsampling : 4:2:0
Bit depth : 8 bits
Scan type : Progressive
Bits/(Pixel*Frame) : 0.110
Stream size : 6.39 GiB (95%)
Default : Yes
Forced : No
Color range : Limited
Color primaries : BT.709
Transfer characteristics : BT.709
Matrix coefficients : BT.709

TJPW 8th Tokyo Princess Cup Final 2021

Audio
ID : 2
Format : AAC LC
Format/Info : Advanced Audio
Codec ID : A_AAC-2
Duration : 2 h 14 min
Bit rate : 384 kb/s
Channel(s) : 2 channels
Channel layout : L R
Sampling rate : 48.0 kHz
Frame rate : 46.875 FPS (1024 SPF)
Compression mode : Lossy
Delay relative to video : 7 ms
Stream size : 367 MiB (5%)
Default : Yes
Forced : No

TJPW 8th Tokyo Princess Cup Final 2021

Complete name : Tokyo.Joshi.Pro.2021.07.31.8th.Tokyo.Princess.Cup.Final.WEB.h264-LATE.mkv
Format : Matroska
Format version : Version 4
File size : 1.26 GiB
Duration : 2 h 14 min
Overall bit rate mode : Variable
Overall bit rate : 1 347 kb/s

Video
ID : 1
Format : AVC
Format/Info : Advanced Video
Duration : 2 h 14 min
Bit rate mode : Variable
Bit rate : 1 219 kb/s
Maximum bit rate : 4 000 kb/s
Width : 960 pixels
Height : 540 pixels
Display aspect ratio : 16:9
Frame rate mode : Constant
Frame rate : 29.970 (30000/1001) FPS
Color space : YUV
Chroma subsampling : 4:2:0
Bit depth : 8 bits
Scan type : Progressive
Bits/(Pixel*Frame) : 0.078
Stream size : 1.14 GiB (90%)
Default : Yes
Forced : No
Color range : Limited
Color primaries : BT.709
Transfer characteristics : BT.709
Matrix coefficients : BT.709

TJPW 8th Tokyo Princess Cup Final 2021

Audio
ID : 2
Format : AAC LC
Format/Info : Advanced Audio
Codec ID : A_AAC-2
Duration : 2 h 14 min
Bit rate : 125 kb/s
Channel(s) : 2 channels
Channel layout : L R
Sampling rate : 48.0 kHz
Frame rate : 46.875 FPS (1024 SPF)
Compression mode : Lossy
Delay relative to video : 7 ms
Stream size : 121 MiB (9%)
Default : Yes
Forced : No

Complete name : Tokyo.Joshi.Pro.2021.07.31.8th.Tokyo.Princess.Cup.Final.720p.WEB.h264-LATE.mkv
Format : Matroska
Format version : Version 4
File size : 2.84 GiB
Duration : 2 h 14 min
Overall bit rate mode : Variable
Overall bit rate : 3 020 kb/s

TJPW 8th Tokyo Princess Cup Final 2021

Video
ID : 1
Format : AVC
Format/Info : Advanced Video
Duration : 2 h 14 min
Bit rate mode : Variable
Bit rate : 2 828 kb/s
Maximum bit rate : 8 000 kb/s
Width : 1 280 pixels
Height : 720 pixels
Display aspect ratio : 16:9
Frame rate mode : Constant
Frame rate : 29.970 (30000/1001) FPS
Color space : YUV
Chroma subsampling : 4:2:0
Bit depth : 8 bits
Scan type : Progressive
Bits/(Pixel*Frame) : 0.102
Stream size : 2.66 GiB (94%)
Default : Yes
Forced : No
Color range : Limited
Color primaries : BT.709
Transfer characteristics : BT.709
Matrix coefficients : BT.709

TJPW 8th Tokyo Princess Cup Final 2021

Audio
ID : 2
Format : AAC LC
Format/Info : Advanced Audio
Codec ID : A_AAC-2
Duration : 2 h 14 min
Bit rate : 192 kb/s
Channel(s) : 2 channels
Channel layout : L R
Sampling rate : 48.0 kHz
Frame rate : 46.875 FPS (1024 SPF)
Compression mode : Lossy
Delay relative to video : 7 ms
Stream size : 182 MiB (6%)
Default : Yes
Forced : No

Complete name : Tokyo.Joshi.Pro.2021.07.31.8th.Tokyo.Princess.Cup.Final.1080p.WEB.h264-LATE.mkv
Format : Matroska
Format version : Version 4
File size : 6.75 GiB
Duration : 2 h 14 min
Overall bit rate mode : Variable
Overall bit rate : 7 192 kb/s

TJPW 8th Tokyo Princess Cup Final 2021

Video
ID : 1
Format : AVC
Format/Info : Advanced Video
Duration : 2 h 14 min
Bit rate mode : Variable
Bit rate : 6 808 kb/s
Maximum bit rate : 18.0 Mb/s
Width : 1 920 pixels
Height : 1 080 pixels
Display aspect ratio : 16:9
Frame rate mode : Constant
Frame rate : 29.970 (30000/1001) FPS
Color space : YUV
Chroma subsampling : 4:2:0
Bit depth : 8 bits
Scan type : Progressive
Bits/(Pixel*Frame) : 0.110
Stream size : 6.39 GiB (95%)
Default : Yes
Forced : No
Color range : Limited
Color primaries : BT.709
Transfer characteristics : BT.709
Matrix coefficients : BT.709

TJPW 8th Tokyo Princess Cup Final 2021

Audio
ID : 2
Format : AAC LC
Format/Info : Advanced Audio
Codec ID : A_AAC-2
Duration : 2 h 14 min
Bit rate : 384 kb/s
Channel(s) : 2 channels
Channel layout : L R
Sampling rate : 48.0 kHz
Frame rate : 46.875 FPS (1024 SPF)
Compression mode : Lossy
Delay relative to video : 7 ms
Stream size : 367 MiB (5%)
Default : Yes
Forced : No

TJPW 8th Tokyo Princess Cup Final 2021

Complete name : Tokyo.Joshi.Pro.2021.07.31.8th.Tokyo.Princess.Cup.Final.WEB.h264-LATE.mkv
Format : Matroska
Format version : Version 4
File size : 1.26 GiB
Duration : 2 h 14 min
Overall bit rate mode : Variable
Overall bit rate : 1 347 kb/s

Video
ID : 1
Format : AVC
Format/Info : Advanced Video
Duration : 2 h 14 min
Bit rate mode : Variable
Bit rate : 1 219 kb/s
Maximum bit rate : 4 000 kb/s
Width : 960 pixels
Height : 540 pixels
Display aspect ratio : 16:9
Frame rate mode : Constant
Frame rate : 29.970 (30000/1001) FPS
Color space : YUV
Chroma subsampling : 4:2:0
Bit depth : 8 bits
Scan type : Progressive
Bits/(Pixel*Frame) : 0.078
Stream size : 1.14 GiB (90%)
Default : Yes
Forced : No
Color range : Limited
Color primaries : BT.709
Transfer characteristics : BT.709
Matrix coefficients : BT.709

TJPW 8th Tokyo Princess Cup Final 2021

Audio
ID : 2
Format : AAC LC
Format/Info : Advanced Audio
Codec ID : A_AAC-2
Duration : 2 h 14 min
Bit rate : 125 kb/s
Channel(s) : 2 channels
Channel layout : L R
Sampling rate : 48.0 kHz
Frame rate : 46.875 FPS (1024 SPF)
Compression mode : Lossy
Delay relative to video : 7 ms
Stream size : 121 MiB (9%)
Default : Yes
Forced : No

Complete name : Tokyo.Joshi.Pro.2021.07.31.8th.Tokyo.Princess.Cup.Final.720p.WEB.h264-LATE.mkv
Format : Matroska
Format version : Version 4
File size : 2.84 GiB
Duration : 2 h 14 min
Overall bit rate mode : Variable
Overall bit rate : 3 020 kb/s

TJPW 8th Tokyo Princess Cup Final 2021

Video
ID : 1
Format : AVC
Format/Info : Advanced Video
Duration : 2 h 14 min
Bit rate mode : Variable
Bit rate : 2 828 kb/s
Maximum bit rate : 8 000 kb/s
Width : 1 280 pixels
Height : 720 pixels
Display aspect ratio : 16:9
Frame rate mode : Constant
Frame rate : 29.970 (30000/1001) FPS
Color space : YUV
Chroma subsampling : 4:2:0
Bit depth : 8 bits
Scan type : Progressive
Bits/(Pixel*Frame) : 0.102
Stream size : 2.66 GiB (94%)
Default : Yes
Forced : No
Color range : Limited
Color primaries : BT.709
Transfer characteristics : BT.709
Matrix coefficients : BT.709

TJPW 8th Tokyo Princess Cup Final 2021

Audio
ID : 2
Format : AAC LC
Format/Info : Advanced Audio
Codec ID : A_AAC-2
Duration : 2 h 14 min
Bit rate : 192 kb/s
Channel(s) : 2 channels
Channel layout : L R
Sampling rate : 48.0 kHz
Frame rate : 46.875 FPS (1024 SPF)
Compression mode : Lossy
Delay relative to video : 7 ms
Stream size : 182 MiB (6%)
Default : Yes
Forced : No

Complete name : Tokyo.Joshi.Pro.2021.07.31.8th.Tokyo.Princess.Cup.Final.1080p.WEB.h264-LATE.mkv
Format : Matroska
Format version : Version 4
File size : 6.75 GiB
Duration : 2 h 14 min
Overall bit rate mode : Variable
Overall bit rate : 7 192 kb/s

TJPW 8th Tokyo Princess Cup Final 2021

Video
ID : 1
Format : AVC
Format/Info : Advanced Video
Duration : 2 h 14 min
Bit rate mode : Variable
Bit rate : 6 808 kb/s
Maximum bit rate : 18.0 Mb/s
Width : 1 920 pixels
Height : 1 080 pixels
Display aspect ratio : 16:9
Frame rate mode : Constant
Frame rate : 29.970 (30000/1001) FPS
Color space : YUV
Chroma subsampling : 4:2:0
Bit depth : 8 bits
Scan type : Progressive
Bits/(Pixel*Frame) : 0.110
Stream size : 6.39 GiB (95%)
Default : Yes
Forced : No
Color range : Limited
Color primaries : BT.709
Transfer characteristics : BT.709
Matrix coefficients : BT.709

TJPW 8th Tokyo Princess Cup Final 2021

Audio
ID : 2
Format : AAC LC
Format/Info : Advanced Audio
Codec ID : A_AAC-2
Duration : 2 h 14 min
Bit rate : 384 kb/s
Channel(s) : 2 channels
Channel layout : L R
Sampling rate : 48.0 kHz
Frame rate : 46.875 FPS (1024 SPF)
Compression mode : Lossy
Delay relative to video : 7 ms
Stream size : 367 MiB (5%)
Default : Yes
Forced : No

TJPW 8th Tokyo Princess Cup Final 2021

Complete name : Tokyo.Joshi.Pro.2021.07.31.8th.Tokyo.Princess.Cup.Final.WEB.h264-LATE.mkv
Format : Matroska
Format version : Version 4
File size : 1.26 GiB
Duration : 2 h 14 min
Overall bit rate mode : Variable
Overall bit rate : 1 347 kb/s

Video
ID : 1
Format : AVC
Format/Info : Advanced Video
Duration : 2 h 14 min
Bit rate mode : Variable
Bit rate : 1 219 kb/s
Maximum bit rate : 4 000 kb/s
Width : 960 pixels
Height : 540 pixels
Display aspect ratio : 16:9
Frame rate mode : Constant
Frame rate : 29.970 (30000/1001) FPS
Color space : YUV
Chroma subsampling : 4:2:0
Bit depth : 8 bits
Scan type : Progressive
Bits/(Pixel*Frame) : 0.078
Stream size : 1.14 GiB (90%)
Default : Yes
Forced : No
Color range : Limited
Color primaries : BT.709
Transfer characteristics : BT.709
Matrix coefficients : BT.709

TJPW 8th Tokyo Princess Cup Final 2021

Audio
ID : 2
Format : AAC LC
Format/Info : Advanced Audio
Codec ID : A_AAC-2
Duration : 2 h 14 min
Bit rate : 125 kb/s
Channel(s) : 2 channels
Channel layout : L R
Sampling rate : 48.0 kHz
Frame rate : 46.875 FPS (1024 SPF)
Compression mode : Lossy
Delay relative to video : 7 ms
Stream size : 121 MiB (9%)
Default : Yes
Forced : No

Complete name : Tokyo.Joshi.Pro.2021.07.31.8th.Tokyo.Princess.Cup.Final.720p.WEB.h264-LATE.mkv
Format : Matroska
Format version : Version 4
File size : 2.84 GiB
Duration : 2 h 14 min
Overall bit rate mode : Variable
Overall bit rate : 3 020 kb/s

TJPW 8th Tokyo Princess Cup Final 2021

Video
ID : 1
Format : AVC
Format/Info : Advanced Video
Duration : 2 h 14 min
Bit rate mode : Variable
Bit rate : 2 828 kb/s
Maximum bit rate : 8 000 kb/s
Width : 1 280 pixels
Height : 720 pixels
Display aspect ratio : 16:9
Frame rate mode : Constant
Frame rate : 29.970 (30000/1001) FPS
Color space : YUV
Chroma subsampling : 4:2:0
Bit depth : 8 bits
Scan type : Progressive
Bits/(Pixel*Frame) : 0.102
Stream size : 2.66 GiB (94%)
Default : Yes
Forced : No
Color range : Limited
Color primaries : BT.709
Transfer characteristics : BT.709
Matrix coefficients : BT.709

TJPW 8th Tokyo Princess Cup Final 2021

Audio
ID : 2
Format : AAC LC
Format/Info : Advanced Audio
Codec ID : A_AAC-2
Duration : 2 h 14 min
Bit rate : 192 kb/s
Channel(s) : 2 channels
Channel layout : L R
Sampling rate : 48.0 kHz
Frame rate : 46.875 FPS (1024 SPF)
Compression mode : Lossy
Delay relative to video : 7 ms
Stream size : 182 MiB (6%)
Default : Yes
Forced : No

Complete name : Tokyo.Joshi.Pro.2021.07.31.8th.Tokyo.Princess.Cup.Final.1080p.WEB.h264-LATE.mkv
Format : Matroska
Format version : Version 4
File size : 6.75 GiB
Duration : 2 h 14 min
Overall bit rate mode : Variable
Overall bit rate : 7 192 kb/s

TJPW 8th Tokyo Princess Cup Final 2021

Video
ID : 1
Format : AVC
Format/Info : Advanced Video
Duration : 2 h 14 min
Bit rate mode : Variable
Bit rate : 6 808 kb/s
Maximum bit rate : 18.0 Mb/s
Width : 1 920 pixels
Height : 1 080 pixels
Display aspect ratio : 16:9
Frame rate mode : Constant
Frame rate : 29.970 (30000/1001) FPS
Color space : YUV
Chroma subsampling : 4:2:0
Bit depth : 8 bits
Scan type : Progressive
Bits/(Pixel*Frame) : 0.110
Stream size : 6.39 GiB (95%)
Default : Yes
Forced : No
Color range : Limited
Color primaries : BT.709
Transfer characteristics : BT.709
Matrix coefficients : BT.709

TJPW 8th Tokyo Princess Cup Final 2021

Audio
ID : 2
Format : AAC LC
Format/Info : Advanced Audio
Codec ID : A_AAC-2
Duration : 2 h 14 min
Bit rate : 384 kb/s
Channel(s) : 2 channels
Channel layout : L R
Sampling rate : 48.0 kHz
Frame rate : 46.875 FPS (1024 SPF)
Compression mode : Lossy
Delay relative to video : 7 ms
Stream size : 367 MiB (5%)
Default : Yes
Forced : No

TJPW 8th Tokyo Princess Cup Final 2021

Complete name : Tokyo.Joshi.Pro.2021.07.31.8th.Tokyo.Princess.Cup.Final.WEB.h264-LATE.mkv
Format : Matroska
Format version : Version 4
File size : 1.26 GiB
Duration : 2 h 14 min
Overall bit rate mode : Variable
Overall bit rate : 1 347 kb/s

Video
ID : 1
Format : AVC
Format/Info : Advanced Video
Duration : 2 h 14 min
Bit rate mode : Variable
Bit rate : 1 219 kb/s
Maximum bit rate : 4 000 kb/s
Width : 960 pixels
Height : 540 pixels
Display aspect ratio : 16:9
Frame rate mode : Constant
Frame rate : 29.970 (30000/1001) FPS
Color space : YUV
Chroma subsampling : 4:2:0
Bit depth : 8 bits
Scan type : Progressive
Bits/(Pixel*Frame) : 0.078
Stream size : 1.14 GiB (90%)
Default : Yes
Forced : No
Color range : Limited
Color primaries : BT.709
Transfer characteristics : BT.709
Matrix coefficients : BT.709

TJPW 8th Tokyo Princess Cup Final 2021

Audio
ID : 2
Format : AAC LC
Format/Info : Advanced Audio
Codec ID : A_AAC-2
Duration : 2 h 14 min
Bit rate : 125 kb/s
Channel(s) : 2 channels
Channel layout : L R
Sampling rate : 48.0 kHz
Frame rate : 46.875 FPS (1024 SPF)
Compression mode : Lossy
Delay relative to video : 7 ms
Stream size : 121 MiB (9%)
Default : Yes
Forced : No

Complete name : Tokyo.Joshi.Pro.2021.07.31.8th.Tokyo.Princess.Cup.Final.720p.WEB.h264-LATE.mkv
Format : Matroska
Format version : Version 4
File size : 2.84 GiB
Duration : 2 h 14 min
Overall bit rate mode : Variable
Overall bit rate : 3 020 kb/s

TJPW 8th Tokyo Princess Cup Final 2021

Video
ID : 1
Format : AVC
Format/Info : Advanced Video
Duration : 2 h 14 min
Bit rate mode : Variable
Bit rate : 2 828 kb/s
Maximum bit rate : 8 000 kb/s
Width : 1 280 pixels
Height : 720 pixels
Display aspect ratio : 16:9
Frame rate mode : Constant
Frame rate : 29.970 (30000/1001) FPS
Color space : YUV
Chroma subsampling : 4:2:0
Bit depth : 8 bits
Scan type : Progressive
Bits/(Pixel*Frame) : 0.102
Stream size : 2.66 GiB (94%)
Default : Yes
Forced : No
Color range : Limited
Color primaries : BT.709
Transfer characteristics : BT.709
Matrix coefficients : BT.709

TJPW 8th Tokyo Princess Cup Final 2021

Audio
ID : 2
Format : AAC LC
Format/Info : Advanced Audio
Codec ID : A_AAC-2
Duration : 2 h 14 min
Bit rate : 192 kb/s
Channel(s) : 2 channels
Channel layout : L R
Sampling rate : 48.0 kHz
Frame rate : 46.875 FPS (1024 SPF)
Compression mode : Lossy
Delay relative to video : 7 ms
Stream size : 182 MiB (6%)
Default : Yes
Forced : No

Complete name : Tokyo.Joshi.Pro.2021.07.31.8th.Tokyo.Princess.Cup.Final.1080p.WEB.h264-LATE.mkv
Format : Matroska
Format version : Version 4
File size : 6.75 GiB
Duration : 2 h 14 min
Overall bit rate mode : Variable
Overall bit rate : 7 192 kb/s

TJPW 8th Tokyo Princess Cup Final 2021

Video
ID : 1
Format : AVC
Format/Info : Advanced Video
Duration : 2 h 14 min
Bit rate mode : Variable
Bit rate : 6 808 kb/s
Maximum bit rate : 18.0 Mb/s
Width : 1 920 pixels
Height : 1 080 pixels
Display aspect ratio : 16:9
Frame rate mode : Constant
Frame rate : 29.970 (30000/1001) FPS
Color space : YUV
Chroma subsampling : 4:2:0
Bit depth : 8 bits
Scan type : Progressive
Bits/(Pixel*Frame) : 0.110
Stream size : 6.39 GiB (95%)
Default : Yes
Forced : No
Color range : Limited
Color primaries : BT.709
Transfer characteristics : BT.709
Matrix coefficients : BT.709

TJPW 8th Tokyo Princess Cup Final 2021

Audio
ID : 2
Format : AAC LC
Format/Info : Advanced Audio
Codec ID : A_AAC-2
Duration : 2 h 14 min
Bit rate : 384 kb/s
Channel(s) : 2 channels
Channel layout : L R
Sampling rate : 48.0 kHz
Frame rate : 46.875 FPS (1024 SPF)
Compression mode : Lossy
Delay relative to video : 7 ms
Stream size : 367 MiB (5%)
Default : Yes
Forced : No

TJPW 8th Tokyo Princess Cup Final 2021

Complete name : Tokyo.Joshi.Pro.2021.07.31.8th.Tokyo.Princess.Cup.Final.WEB.h264-LATE.mkv
Format : Matroska
Format version : Version 4
File size : 1.26 GiB
Duration : 2 h 14 min
Overall bit rate mode : Variable
Overall bit rate : 1 347 kb/s

Video
ID : 1
Format : AVC
Format/Info : Advanced Video
Duration : 2 h 14 min
Bit rate mode : Variable
Bit rate : 1 219 kb/s
Maximum bit rate : 4 000 kb/s
Width : 960 pixels
Height : 540 pixels
Display aspect ratio : 16:9
Frame rate mode : Constant
Frame rate : 29.970 (30000/1001) FPS
Color space : YUV
Chroma subsampling : 4:2:0
Bit depth : 8 bits
Scan type : Progressive
Bits/(Pixel*Frame) : 0.078
Stream size : 1.14 GiB (90%)
Default : Yes
Forced : No
Color range : Limited
Color primaries : BT.709
Transfer characteristics : BT.709
Matrix coefficients : BT.709

TJPW 8th Tokyo Princess Cup Final 2021

Audio
ID : 2
Format : AAC LC
Format/Info : Advanced Audio
Codec ID : A_AAC-2
Duration : 2 h 14 min
Bit rate : 125 kb/s
Channel(s) : 2 channels
Channel layout : L R
Sampling rate : 48.0 kHz
Frame rate : 46.875 FPS (1024 SPF)
Compression mode : Lossy
Delay relative to video : 7 ms
Stream size : 121 MiB (9%)
Default : Yes
Forced : No

Complete name : Tokyo.Joshi.Pro.2021.07.31.8th.Tokyo.Princess.Cup.Final.720p.WEB.h264-LATE.mkv
Format : Matroska
Format version : Version 4
File size : 2.84 GiB
Duration : 2 h 14 min
Overall bit rate mode : Variable
Overall bit rate : 3 020 kb/s

TJPW 8th Tokyo Princess Cup Final 2021

Video
ID : 1
Format : AVC
Format/Info : Advanced Video
Duration : 2 h 14 min
Bit rate mode : Variable
Bit rate : 2 828 kb/s
Maximum bit rate : 8 000 kb/s
Width : 1 280 pixels
Height : 720 pixels
Display aspect ratio : 16:9
Frame rate mode : Constant
Frame rate : 29.970 (30000/1001) FPS
Color space : YUV
Chroma subsampling : 4:2:0
Bit depth : 8 bits
Scan type : Progressive
Bits/(Pixel*Frame) : 0.102
Stream size : 2.66 GiB (94%)
Default : Yes
Forced : No
Color range : Limited
Color primaries : BT.709
Transfer characteristics : BT.709
Matrix coefficients : BT.709

TJPW 8th Tokyo Princess Cup Final 2021

Audio
ID : 2
Format : AAC LC
Format/Info : Advanced Audio
Codec ID : A_AAC-2
Duration : 2 h 14 min
Bit rate : 192 kb/s
Channel(s) : 2 channels
Channel layout : L R
Sampling rate : 48.0 kHz
Frame rate : 46.875 FPS (1024 SPF)
Compression mode : Lossy
Delay relative to video : 7 ms
Stream size : 182 MiB (6%)
Default : Yes
Forced : No

Complete name : Tokyo.Joshi.Pro.2021.07.31.8th.Tokyo.Princess.Cup.Final.1080p.WEB.h264-LATE.mkv
Format : Matroska
Format version : Version 4
File size : 6.75 GiB
Duration : 2 h 14 min
Overall bit rate mode : Variable
Overall bit rate : 7 192 kb/s

TJPW 8th Tokyo Princess Cup Final 2021

Video
ID : 1
Format : AVC
Format/Info : Advanced Video
Duration : 2 h 14 min
Bit rate mode : Variable
Bit rate : 6 808 kb/s
Maximum bit rate : 18.0 Mb/s
Width : 1 920 pixels
Height : 1 080 pixels
Display aspect ratio : 16:9
Frame rate mode : Constant
Frame rate : 29.970 (30000/1001) FPS
Color space : YUV
Chroma subsampling : 4:2:0
Bit depth : 8 bits
Scan type : Progressive
Bits/(Pixel*Frame) : 0.110
Stream size : 6.39 GiB (95%)
Default : Yes
Forced : No
Color range : Limited
Color primaries : BT.709
Transfer characteristics : BT.709
Matrix coefficients : BT.709

TJPW 8th Tokyo Princess Cup Final 2021

Audio
ID : 2
Format : AAC LC
Format/Info : Advanced Audio
Codec ID : A_AAC-2
Duration : 2 h 14 min
Bit rate : 384 kb/s
Channel(s) : 2 channels
Channel layout : L R
Sampling rate : 48.0 kHz
Frame rate : 46.875 FPS (1024 SPF)
Compression mode : Lossy
Delay relative to video : 7 ms
Stream size : 367 MiB (5%)
Default : Yes
Forced : No

TJPW 8th Tokyo Princess Cup Final 2021

Complete name : Tokyo.Joshi.Pro.2021.07.31.8th.Tokyo.Princess.Cup.Final.WEB.h264-LATE.mkv
Format : Matroska
Format version : Version 4
File size : 1.26 GiB
Duration : 2 h 14 min
Overall bit rate mode : Variable
Overall bit rate : 1 347 kb/s

Video
ID : 1
Format : AVC
Format/Info : Advanced Video
Duration : 2 h 14 min
Bit rate mode : Variable
Bit rate : 1 219 kb/s
Maximum bit rate : 4 000 kb/s
Width : 960 pixels
Height : 540 pixels
Display aspect ratio : 16:9
Frame rate mode : Constant
Frame rate : 29.970 (30000/1001) FPS
Color space : YUV
Chroma subsampling : 4:2:0
Bit depth : 8 bits
Scan type : Progressive
Bits/(Pixel*Frame) : 0.078
Stream size : 1.14 GiB (90%)
Default : Yes
Forced : No
Color range : Limited
Color primaries : BT.709
Transfer characteristics : BT.709
Matrix coefficients : BT.709

TJPW 8th Tokyo Princess Cup Final 2021

Audio
ID : 2
Format : AAC LC
Format/Info : Advanced Audio
Codec ID : A_AAC-2
Duration : 2 h 14 min
Bit rate : 125 kb/s
Channel(s) : 2 channels
Channel layout : L R
Sampling rate : 48.0 kHz
Frame rate : 46.875 FPS (1024 SPF)
Compression mode : Lossy
Delay relative to video : 7 ms
Stream size : 121 MiB (9%)
Default : Yes
Forced : No

Complete name : Tokyo.Joshi.Pro.2021.07.31.8th.Tokyo.Princess.Cup.Final.720p.WEB.h264-LATE.mkv
Format : Matroska
Format version : Version 4
File size : 2.84 GiB
Duration : 2 h 14 min
Overall bit rate mode : Variable
Overall bit rate : 3 020 kb/s

TJPW 8th Tokyo Princess Cup Final 2021

Video
ID : 1
Format : AVC
Format/Info : Advanced Video
Duration : 2 h 14 min
Bit rate mode : Variable
Bit rate : 2 828 kb/s
Maximum bit rate : 8 000 kb/s
Width : 1 280 pixels
Height : 720 pixels
Display aspect ratio : 16:9
Frame rate mode : Constant
Frame rate : 29.970 (30000/1001) FPS
Color space : YUV
Chroma subsampling : 4:2:0
Bit depth : 8 bits
Scan type : Progressive
Bits/(Pixel*Frame) : 0.102
Stream size : 2.66 GiB (94%)
Default : Yes
Forced : No
Color range : Limited
Color primaries : BT.709
Transfer characteristics : BT.709
Matrix coefficients : BT.709

TJPW 8th Tokyo Princess Cup Final 2021

Audio
ID : 2
Format : AAC LC
Format/Info : Advanced Audio
Codec ID : A_AAC-2
Duration : 2 h 14 min
Bit rate : 192 kb/s
Channel(s) : 2 channels
Channel layout : L R
Sampling rate : 48.0 kHz
Frame rate : 46.875 FPS (1024 SPF)
Compression mode : Lossy
Delay relative to video : 7 ms
Stream size : 182 MiB (6%)
Default : Yes
Forced : No

Complete name : Tokyo.Joshi.Pro.2021.07.31.8th.Tokyo.Princess.Cup.Final.1080p.WEB.h264-LATE.mkv
Format : Matroska
Format version : Version 4
File size : 6.75 GiB
Duration : 2 h 14 min
Overall bit rate mode : Variable
Overall bit rate : 7 192 kb/s

TJPW 8th Tokyo Princess Cup Final 2021

Video
ID : 1
Format : AVC
Format/Info : Advanced Video
Duration : 2 h 14 min
Bit rate mode : Variable
Bit rate : 6 808 kb/s
Maximum bit rate : 18.0 Mb/s
Width : 1 920 pixels
Height : 1 080 pixels
Display aspect ratio : 16:9
Frame rate mode : Constant
Frame rate : 29.970 (30000/1001) FPS
Color space : YUV
Chroma subsampling : 4:2:0
Bit depth : 8 bits
Scan type : Progressive
Bits/(Pixel*Frame) : 0.110
Stream size : 6.39 GiB (95%)
Default : Yes
Forced : No
Color range : Limited
Color primaries : BT.709
Transfer characteristics : BT.709
Matrix coefficients : BT.709

TJPW 8th Tokyo Princess Cup Final 2021

Audio
ID : 2
Format : AAC LC
Format/Info : Advanced Audio
Codec ID : A_AAC-2
Duration : 2 h 14 min
Bit rate : 384 kb/s
Channel(s) : 2 channels
Channel layout : L R
Sampling rate : 48.0 kHz
Frame rate : 46.875 FPS (1024 SPF)
Compression mode : Lossy
Delay relative to video : 7 ms
Stream size : 367 MiB (5%)
Default : Yes
Forced : No

TJPW 8th Tokyo Princess Cup Final 2021

 

[collapse]

 

 

https://dx-tv.com/

Leave a Reply

Your email address will not be published. Required fields are marked *

This site uses Akismet to reduce spam. Learn how your comment data is processed.