TJPW 8th Tokyo Princess Cup Day 6 English Online Free

TJPW 8th Tokyo Princess Cup Day 6 1080p 2021 08 14 English Online Free Replay DX-TV

Contents show

TJPW 8th Tokyo Princess 

 TJPW 8th Tokyo Princess Cup

 

 

 

Download Links with premium High Speed


 

Dopapk

 

 

Show Links

 

http://shrt10.com/HClzvDo
http://shrt10.com/WPEfFNlNS
http://shrt10.com/GkMgU0G

 

[collapse]

 

 

Nitroflare

 

 

Show Links

 

http://shrt10.com/zFARnNOc
http://shrt10.com/7fZibk6
http://shrt10.com/ZUgEczDjH

 

[collapse]

 

 

Rapidgator

 

 

Show Links

 

http://shrt10.com/xRGDW4GCy
http://shrt10.com/thzi9a0
http://shrt10.com/r7cXS

 

[collapse]

 

 

Uploaded

 

 

Show Links

 

http://shrt10.com/Bz6Bqj0C6
http://shrt10.com/WVf4btis

 

[collapse]

 

 

Watch online

 

Server 1

 

 

 

 

TJPW 8th Tokyo Princess 

 

 

 

 

Server-2

 

 

 

 

watch now

 

 

 

|Server-3

 

 

 

 

TJPW 8th Tokyo Princess 

 

 

Uploaded By Site DX-TV.com

 

 

Show Info This Show

TJPW 8th Tokyo Princess 

 

Complete name : Tokyo.Joshi.Pro.2021.08.14.8th.Tokyo.Princess.Cup.Day.6.ENGLISH.720p.WEB.h264-LATE.mkv
Format : Matroska
Format version : Version 4
File size : 4.22 GiB
Duration : 2 h 47 min
Overall bit rate mode : Variable
Overall bit rate : 3 611 kb/s

Video
ID : 1
Format : AVC
Format/Info : Advanced Video
Duration : 2 h 47 min
Bit rate mode : Variable
Bit rate : 3 419 kb/s
Maximum bit rate : 8 000 kb/s
Width : 1 280 pixels
Height : 720 pixels
Display aspect ratio : 16:9
Frame rate mode : Constant
Frame rate : 29.970 (30000/1001) FPS
Color space : YUV
Chroma subsampling : 4:2:0
Bit depth : 8 bits
Scan type : Progressive
Bits/(Pixel*Frame) : 0.124
Stream size : 4.00 GiB (95%)
Default : Yes
Forced : No
Color range : Limited
Color primaries : BT.709
Transfer characteristics : BT.709
Matrix coefficients : BT.709

TJPW 8th Tokyo Princess 

Audio
ID : 2
Format : AAC LC
Format/Info : Advanced Audio
Codec ID : A_AAC-2
Duration : 2 h 47 min
Bit rate : 192 kb/s
Channel(s) : 2 channels
Channel layout : L R
Sampling rate : 48.0 kHz
Frame rate : 46.875 FPS (1024 SPF)
Compression mode : Lossy
Delay relative to video : 3 ms
Stream size : 227 MiB (5%)
Default : Yes
Forced : No

Complete name : Tokyo.Joshi.Pro.2021.08.14.8th.Tokyo.Princess.Cup.Day.6.ENGLISH.1080p.WEB.h264-LATE.mkv
Format : Matroska
Format version : Version 4
File size : 9.74 GiB
Duration : 2 h 47 min
Overall bit rate mode : Variable
Overall bit rate : 8 325 kb/s

TJPW 8th Tokyo Princess 

Video
ID : 1
Format : AVC
Format/Info : Advanced Video
Codec ID : V_MPEG4/ISO/AVC
Duration : 2 h 47 min
Bit rate mode : Variable
Bit rate : 7 941 kb/s
Maximum bit rate : 18.0 Mb/s
Width : 1 920 pixels
Height : 1 080 pixels
Display aspect ratio : 16:9
Frame rate mode : Constant
Frame rate : 29.970 (30000/1001) FPS
Color space : YUV
Chroma subsampling : 4:2:0
Bit depth : 8 bits
Scan type : Progressive
Bits/(Pixel*Frame) : 0.128
Stream size : 9.29 GiB (95%)
Default : Yes
Forced : No
Color range : Limited
Color primaries : BT.709
Transfer characteristics : BT.709
Matrix coefficients : BT.709

TJPW 8th Tokyo Princess 

Audio
ID : 2
Format : AAC LC
Format/Info : Advanced Audio
Codec ID : A_AAC-2
Duration : 2 h 47 min
Bit rate : 384 kb/s
Channel(s) : 2 channels
Channel layout : L R
Sampling rate : 48.0 kHz
Frame rate : 46.875 FPS (1024 SPF)
Compression mode : Lossy
Delay relative to video : 3 ms
Stream size : 457 MiB (5%)
Default : Yes
Forced : No

Complete name : Tokyo.Joshi.Pro.2021.08.14.8th.Tokyo.Princess.Cup.Day.6.ENGLISH.720p.WEB.h264-LATE.mkv
Format : Matroska
Format version : Version 4
File size : 4.22 GiB
Duration : 2 h 47 min
Overall bit rate mode : Variable
Overall bit rate : 3 611 kb/s

TJPW 8th Tokyo Princess 

Video
ID : 1
Format : AVC
Format/Info : Advanced Video
Duration : 2 h 47 min
Bit rate mode : Variable
Bit rate : 3 419 kb/s
Maximum bit rate : 8 000 kb/s
Width : 1 280 pixels
Height : 720 pixels
Display aspect ratio : 16:9
Frame rate mode : Constant
Frame rate : 29.970 (30000/1001) FPS
Color space : YUV
Chroma subsampling : 4:2:0
Bit depth : 8 bits
Scan type : Progressive
Bits/(Pixel*Frame) : 0.124
Stream size : 4.00 GiB (95%)
Default : Yes
Forced : No
Color range : Limited
Color primaries : BT.709
Transfer characteristics : BT.709
Matrix coefficients : BT.709

TJPW 8th Tokyo Princess 

Audio
ID : 2
Format : AAC LC
Format/Info : Advanced Audio
Codec ID : A_AAC-2
Duration : 2 h 47 min
Bit rate : 192 kb/s
Channel(s) : 2 channels
Channel layout : L R
Sampling rate : 48.0 kHz
Frame rate : 46.875 FPS (1024 SPF)
Compression mode : Lossy
Delay relative to video : 3 ms
Stream size : 227 MiB (5%)
Default : Yes
Forced : No

TJPW 8th Tokyo Princess 

Complete name : Tokyo.Joshi.Pro.2021.08.14.8th.Tokyo.Princess.Cup.Day.6.ENGLISH.720p.WEB.h264-LATE.mkv
Format : Matroska
Format version : Version 4
File size : 4.22 GiB
Duration : 2 h 47 min
Overall bit rate mode : Variable
Overall bit rate : 3 611 kb/s

Video
ID : 1
Format : AVC
Format/Info : Advanced Video
Duration : 2 h 47 min
Bit rate mode : Variable
Bit rate : 3 419 kb/s
Maximum bit rate : 8 000 kb/s
Width : 1 280 pixels
Height : 720 pixels
Display aspect ratio : 16:9
Frame rate mode : Constant
Frame rate : 29.970 (30000/1001) FPS
Color space : YUV
Chroma subsampling : 4:2:0
Bit depth : 8 bits
Scan type : Progressive
Bits/(Pixel*Frame) : 0.124
Stream size : 4.00 GiB (95%)
Default : Yes
Forced : No
Color range : Limited
Color primaries : BT.709
Transfer characteristics : BT.709
Matrix coefficients : BT.709

TJPW 8th Tokyo Princess 

Audio
ID : 2
Format : AAC LC
Format/Info : Advanced Audio
Codec ID : A_AAC-2
Duration : 2 h 47 min
Bit rate : 192 kb/s
Channel(s) : 2 channels
Channel layout : L R
Sampling rate : 48.0 kHz
Frame rate : 46.875 FPS (1024 SPF)
Compression mode : Lossy
Delay relative to video : 3 ms
Stream size : 227 MiB (5%)
Default : Yes
Forced : No

Complete name : Tokyo.Joshi.Pro.2021.08.14.8th.Tokyo.Princess.Cup.Day.6.ENGLISH.1080p.WEB.h264-LATE.mkv
Format : Matroska
Format version : Version 4
File size : 9.74 GiB
Duration : 2 h 47 min
Overall bit rate mode : Variable
Overall bit rate : 8 325 kb/s

TJPW 8th Tokyo Princess 

Video
ID : 1
Format : AVC
Format/Info : Advanced Video
Codec ID : V_MPEG4/ISO/AVC
Duration : 2 h 47 min
Bit rate mode : Variable
Bit rate : 7 941 kb/s
Maximum bit rate : 18.0 Mb/s
Width : 1 920 pixels
Height : 1 080 pixels
Display aspect ratio : 16:9
Frame rate mode : Constant
Frame rate : 29.970 (30000/1001) FPS
Color space : YUV
Chroma subsampling : 4:2:0
Bit depth : 8 bits
Scan type : Progressive
Bits/(Pixel*Frame) : 0.128
Stream size : 9.29 GiB (95%)
Default : Yes
Forced : No
Color range : Limited
Color primaries : BT.709
Transfer characteristics : BT.709
Matrix coefficients : BT.709

TJPW 8th Tokyo Princess 

Audio
ID : 2
Format : AAC LC
Format/Info : Advanced Audio
Codec ID : A_AAC-2
Duration : 2 h 47 min
Bit rate : 384 kb/s
Channel(s) : 2 channels
Channel layout : L R
Sampling rate : 48.0 kHz
Frame rate : 46.875 FPS (1024 SPF)
Compression mode : Lossy
Delay relative to video : 3 ms
Stream size : 457 MiB (5%)
Default : Yes
Forced : No

Complete name : Tokyo.Joshi.Pro.2021.08.14.8th.Tokyo.Princess.Cup.Day.6.ENGLISH.720p.WEB.h264-LATE.mkv
Format : Matroska
Format version : Version 4
File size : 4.22 GiB
Duration : 2 h 47 min
Overall bit rate mode : Variable
Overall bit rate : 3 611 kb/s

TJPW 8th Tokyo Princess 

Video
ID : 1
Format : AVC
Format/Info : Advanced Video
Duration : 2 h 47 min
Bit rate mode : Variable
Bit rate : 3 419 kb/s
Maximum bit rate : 8 000 kb/s
Width : 1 280 pixels
Height : 720 pixels
Display aspect ratio : 16:9
Frame rate mode : Constant
Frame rate : 29.970 (30000/1001) FPS
Color space : YUV
Chroma subsampling : 4:2:0
Bit depth : 8 bits
Scan type : Progressive
Bits/(Pixel*Frame) : 0.124
Stream size : 4.00 GiB (95%)
Default : Yes
Forced : No
Color range : Limited
Color primaries : BT.709
Transfer characteristics : BT.709
Matrix coefficients : BT.709

TJPW 8th Tokyo Princess 

Audio
ID : 2
Format : AAC LC
Format/Info : Advanced Audio
Codec ID : A_AAC-2
Duration : 2 h 47 min
Bit rate : 192 kb/s
Channel(s) : 2 channels
Channel layout : L R
Sampling rate : 48.0 kHz
Frame rate : 46.875 FPS (1024 SPF)
Compression mode : Lossy
Delay relative to video : 3 ms
Stream size : 227 MiB (5%)
Default : Yes
Forced : No

TJPW 8th Tokyo Princess 

Complete name : Tokyo.Joshi.Pro.2021.08.14.8th.Tokyo.Princess.Cup.Day.6.ENGLISH.720p.WEB.h264-LATE.mkv
Format : Matroska
Format version : Version 4
File size : 4.22 GiB
Duration : 2 h 47 min
Overall bit rate mode : Variable
Overall bit rate : 3 611 kb/s

Video
ID : 1
Format : AVC
Format/Info : Advanced Video
Duration : 2 h 47 min
Bit rate mode : Variable
Bit rate : 3 419 kb/s
Maximum bit rate : 8 000 kb/s
Width : 1 280 pixels
Height : 720 pixels
Display aspect ratio : 16:9
Frame rate mode : Constant
Frame rate : 29.970 (30000/1001) FPS
Color space : YUV
Chroma subsampling : 4:2:0
Bit depth : 8 bits
Scan type : Progressive
Bits/(Pixel*Frame) : 0.124
Stream size : 4.00 GiB (95%)
Default : Yes
Forced : No
Color range : Limited
Color primaries : BT.709
Transfer characteristics : BT.709
Matrix coefficients : BT.709

TJPW 8th Tokyo Princess 

Audio
ID : 2
Format : AAC LC
Format/Info : Advanced Audio
Codec ID : A_AAC-2
Duration : 2 h 47 min
Bit rate : 192 kb/s
Channel(s) : 2 channels
Channel layout : L R
Sampling rate : 48.0 kHz
Frame rate : 46.875 FPS (1024 SPF)
Compression mode : Lossy
Delay relative to video : 3 ms
Stream size : 227 MiB (5%)
Default : Yes
Forced : No

Complete name : Tokyo.Joshi.Pro.2021.08.14.8th.Tokyo.Princess.Cup.Day.6.ENGLISH.1080p.WEB.h264-LATE.mkv
Format : Matroska
Format version : Version 4
File size : 9.74 GiB
Duration : 2 h 47 min
Overall bit rate mode : Variable
Overall bit rate : 8 325 kb/s

TJPW 8th Tokyo Princess 

Video
ID : 1
Format : AVC
Format/Info : Advanced Video
Codec ID : V_MPEG4/ISO/AVC
Duration : 2 h 47 min
Bit rate mode : Variable
Bit rate : 7 941 kb/s
Maximum bit rate : 18.0 Mb/s
Width : 1 920 pixels
Height : 1 080 pixels
Display aspect ratio : 16:9
Frame rate mode : Constant
Frame rate : 29.970 (30000/1001) FPS
Color space : YUV
Chroma subsampling : 4:2:0
Bit depth : 8 bits
Scan type : Progressive
Bits/(Pixel*Frame) : 0.128
Stream size : 9.29 GiB (95%)
Default : Yes
Forced : No
Color range : Limited
Color primaries : BT.709
Transfer characteristics : BT.709
Matrix coefficients : BT.709

TJPW 8th Tokyo Princess 

Audio
ID : 2
Format : AAC LC
Format/Info : Advanced Audio
Codec ID : A_AAC-2
Duration : 2 h 47 min
Bit rate : 384 kb/s
Channel(s) : 2 channels
Channel layout : L R
Sampling rate : 48.0 kHz
Frame rate : 46.875 FPS (1024 SPF)
Compression mode : Lossy
Delay relative to video : 3 ms
Stream size : 457 MiB (5%)
Default : Yes
Forced : No

Complete name : Tokyo.Joshi.Pro.2021.08.14.8th.Tokyo.Princess.Cup.Day.6.ENGLISH.720p.WEB.h264-LATE.mkv
Format : Matroska
Format version : Version 4
File size : 4.22 GiB
Duration : 2 h 47 min
Overall bit rate mode : Variable
Overall bit rate : 3 611 kb/s

TJPW 8th Tokyo Princess 

Video
ID : 1
Format : AVC
Format/Info : Advanced Video
Duration : 2 h 47 min
Bit rate mode : Variable
Bit rate : 3 419 kb/s
Maximum bit rate : 8 000 kb/s
Width : 1 280 pixels
Height : 720 pixels
Display aspect ratio : 16:9
Frame rate mode : Constant
Frame rate : 29.970 (30000/1001) FPS
Color space : YUV
Chroma subsampling : 4:2:0
Bit depth : 8 bits
Scan type : Progressive
Bits/(Pixel*Frame) : 0.124
Stream size : 4.00 GiB (95%)
Default : Yes
Forced : No
Color range : Limited
Color primaries : BT.709
Transfer characteristics : BT.709
Matrix coefficients : BT.709

TJPW 8th Tokyo Princess 

Audio
ID : 2
Format : AAC LC
Format/Info : Advanced Audio
Codec ID : A_AAC-2
Duration : 2 h 47 min
Bit rate : 192 kb/s
Channel(s) : 2 channels
Channel layout : L R
Sampling rate : 48.0 kHz
Frame rate : 46.875 FPS (1024 SPF)
Compression mode : Lossy
Delay relative to video : 3 ms
Stream size : 227 MiB (5%)
Default : Yes
Forced : No

TJPW 8th Tokyo Princess 

Complete name : Tokyo.Joshi.Pro.2021.08.14.8th.Tokyo.Princess.Cup.Day.6.ENGLISH.720p.WEB.h264-LATE.mkv
Format : Matroska
Format version : Version 4
File size : 4.22 GiB
Duration : 2 h 47 min
Overall bit rate mode : Variable
Overall bit rate : 3 611 kb/s

Video
ID : 1
Format : AVC
Format/Info : Advanced Video
Duration : 2 h 47 min
Bit rate mode : Variable
Bit rate : 3 419 kb/s
Maximum bit rate : 8 000 kb/s
Width : 1 280 pixels
Height : 720 pixels
Display aspect ratio : 16:9
Frame rate mode : Constant
Frame rate : 29.970 (30000/1001) FPS
Color space : YUV
Chroma subsampling : 4:2:0
Bit depth : 8 bits
Scan type : Progressive
Bits/(Pixel*Frame) : 0.124
Stream size : 4.00 GiB (95%)
Default : Yes
Forced : No
Color range : Limited
Color primaries : BT.709
Transfer characteristics : BT.709
Matrix coefficients : BT.709

TJPW 8th Tokyo Princess 

Audio
ID : 2
Format : AAC LC
Format/Info : Advanced Audio
Codec ID : A_AAC-2
Duration : 2 h 47 min
Bit rate : 192 kb/s
Channel(s) : 2 channels
Channel layout : L R
Sampling rate : 48.0 kHz
Frame rate : 46.875 FPS (1024 SPF)
Compression mode : Lossy
Delay relative to video : 3 ms
Stream size : 227 MiB (5%)
Default : Yes
Forced : No

Complete name : Tokyo.Joshi.Pro.2021.08.14.8th.Tokyo.Princess.Cup.Day.6.ENGLISH.1080p.WEB.h264-LATE.mkv
Format : Matroska
Format version : Version 4
File size : 9.74 GiB
Duration : 2 h 47 min
Overall bit rate mode : Variable
Overall bit rate : 8 325 kb/s

TJPW 8th Tokyo Princess 

Video
ID : 1
Format : AVC
Format/Info : Advanced Video
Codec ID : V_MPEG4/ISO/AVC
Duration : 2 h 47 min
Bit rate mode : Variable
Bit rate : 7 941 kb/s
Maximum bit rate : 18.0 Mb/s
Width : 1 920 pixels
Height : 1 080 pixels
Display aspect ratio : 16:9
Frame rate mode : Constant
Frame rate : 29.970 (30000/1001) FPS
Color space : YUV
Chroma subsampling : 4:2:0
Bit depth : 8 bits
Scan type : Progressive
Bits/(Pixel*Frame) : 0.128
Stream size : 9.29 GiB (95%)
Default : Yes
Forced : No
Color range : Limited
Color primaries : BT.709
Transfer characteristics : BT.709
Matrix coefficients : BT.709

TJPW 8th Tokyo Princess 

Audio
ID : 2
Format : AAC LC
Format/Info : Advanced Audio
Codec ID : A_AAC-2
Duration : 2 h 47 min
Bit rate : 384 kb/s
Channel(s) : 2 channels
Channel layout : L R
Sampling rate : 48.0 kHz
Frame rate : 46.875 FPS (1024 SPF)
Compression mode : Lossy
Delay relative to video : 3 ms
Stream size : 457 MiB (5%)
Default : Yes
Forced : No

Complete name : Tokyo.Joshi.Pro.2021.08.14.8th.Tokyo.Princess.Cup.Day.6.ENGLISH.720p.WEB.h264-LATE.mkv
Format : Matroska
Format version : Version 4
File size : 4.22 GiB
Duration : 2 h 47 min
Overall bit rate mode : Variable
Overall bit rate : 3 611 kb/s

TJPW 8th Tokyo Princess 

Video
ID : 1
Format : AVC
Format/Info : Advanced Video
Duration : 2 h 47 min
Bit rate mode : Variable
Bit rate : 3 419 kb/s
Maximum bit rate : 8 000 kb/s
Width : 1 280 pixels
Height : 720 pixels
Display aspect ratio : 16:9
Frame rate mode : Constant
Frame rate : 29.970 (30000/1001) FPS
Color space : YUV
Chroma subsampling : 4:2:0
Bit depth : 8 bits
Scan type : Progressive
Bits/(Pixel*Frame) : 0.124
Stream size : 4.00 GiB (95%)
Default : Yes
Forced : No
Color range : Limited
Color primaries : BT.709
Transfer characteristics : BT.709
Matrix coefficients : BT.709

TJPW 8th Tokyo Princess 

Audio
ID : 2
Format : AAC LC
Format/Info : Advanced Audio
Codec ID : A_AAC-2
Duration : 2 h 47 min
Bit rate : 192 kb/s
Channel(s) : 2 channels
Channel layout : L R
Sampling rate : 48.0 kHz
Frame rate : 46.875 FPS (1024 SPF)
Compression mode : Lossy
Delay relative to video : 3 ms
Stream size : 227 MiB (5%)
Default : Yes
Forced : No

TJPW 8th Tokyo Princess 

Complete name : Tokyo.Joshi.Pro.2021.08.14.8th.Tokyo.Princess.Cup.Day.6.ENGLISH.720p.WEB.h264-LATE.mkv
Format : Matroska
Format version : Version 4
File size : 4.22 GiB
Duration : 2 h 47 min
Overall bit rate mode : Variable
Overall bit rate : 3 611 kb/s

Video
ID : 1
Format : AVC
Format/Info : Advanced Video
Duration : 2 h 47 min
Bit rate mode : Variable
Bit rate : 3 419 kb/s
Maximum bit rate : 8 000 kb/s
Width : 1 280 pixels
Height : 720 pixels
Display aspect ratio : 16:9
Frame rate mode : Constant
Frame rate : 29.970 (30000/1001) FPS
Color space : YUV
Chroma subsampling : 4:2:0
Bit depth : 8 bits
Scan type : Progressive
Bits/(Pixel*Frame) : 0.124
Stream size : 4.00 GiB (95%)
Default : Yes
Forced : No
Color range : Limited
Color primaries : BT.709
Transfer characteristics : BT.709
Matrix coefficients : BT.709

TJPW 8th Tokyo Princess 

Audio
ID : 2
Format : AAC LC
Format/Info : Advanced Audio
Codec ID : A_AAC-2
Duration : 2 h 47 min
Bit rate : 192 kb/s
Channel(s) : 2 channels
Channel layout : L R
Sampling rate : 48.0 kHz
Frame rate : 46.875 FPS (1024 SPF)
Compression mode : Lossy
Delay relative to video : 3 ms
Stream size : 227 MiB (5%)
Default : Yes
Forced : No

Complete name : Tokyo.Joshi.Pro.2021.08.14.8th.Tokyo.Princess.Cup.Day.6.ENGLISH.1080p.WEB.h264-LATE.mkv
Format : Matroska
Format version : Version 4
File size : 9.74 GiB
Duration : 2 h 47 min
Overall bit rate mode : Variable
Overall bit rate : 8 325 kb/s

TJPW 8th Tokyo Princess 

Video
ID : 1
Format : AVC
Format/Info : Advanced Video
Codec ID : V_MPEG4/ISO/AVC
Duration : 2 h 47 min
Bit rate mode : Variable
Bit rate : 7 941 kb/s
Maximum bit rate : 18.0 Mb/s
Width : 1 920 pixels
Height : 1 080 pixels
Display aspect ratio : 16:9
Frame rate mode : Constant
Frame rate : 29.970 (30000/1001) FPS
Color space : YUV
Chroma subsampling : 4:2:0
Bit depth : 8 bits
Scan type : Progressive
Bits/(Pixel*Frame) : 0.128
Stream size : 9.29 GiB (95%)
Default : Yes
Forced : No
Color range : Limited
Color primaries : BT.709
Transfer characteristics : BT.709
Matrix coefficients : BT.709

TJPW 8th Tokyo Princess 

Audio
ID : 2
Format : AAC LC
Format/Info : Advanced Audio
Codec ID : A_AAC-2
Duration : 2 h 47 min
Bit rate : 384 kb/s
Channel(s) : 2 channels
Channel layout : L R
Sampling rate : 48.0 kHz
Frame rate : 46.875 FPS (1024 SPF)
Compression mode : Lossy
Delay relative to video : 3 ms
Stream size : 457 MiB (5%)
Default : Yes
Forced : No

Complete name : Tokyo.Joshi.Pro.2021.08.14.8th.Tokyo.Princess.Cup.Day.6.ENGLISH.720p.WEB.h264-LATE.mkv
Format : Matroska
Format version : Version 4
File size : 4.22 GiB
Duration : 2 h 47 min
Overall bit rate mode : Variable
Overall bit rate : 3 611 kb/s

TJPW 8th Tokyo Princess 

Video
ID : 1
Format : AVC
Format/Info : Advanced Video
Duration : 2 h 47 min
Bit rate mode : Variable
Bit rate : 3 419 kb/s
Maximum bit rate : 8 000 kb/s
Width : 1 280 pixels
Height : 720 pixels
Display aspect ratio : 16:9
Frame rate mode : Constant
Frame rate : 29.970 (30000/1001) FPS
Color space : YUV
Chroma subsampling : 4:2:0
Bit depth : 8 bits
Scan type : Progressive
Bits/(Pixel*Frame) : 0.124
Stream size : 4.00 GiB (95%)
Default : Yes
Forced : No
Color range : Limited
Color primaries : BT.709
Transfer characteristics : BT.709
Matrix coefficients : BT.709

TJPW 8th Tokyo Princess 

Audio
ID : 2
Format : AAC LC
Format/Info : Advanced Audio
Codec ID : A_AAC-2
Duration : 2 h 47 min
Bit rate : 192 kb/s
Channel(s) : 2 channels
Channel layout : L R
Sampling rate : 48.0 kHz
Frame rate : 46.875 FPS (1024 SPF)
Compression mode : Lossy
Delay relative to video : 3 ms
Stream size : 227 MiB (5%)
Default : Yes
Forced : No

TJPW 8th Tokyo Princess 

Complete name : Tokyo.Joshi.Pro.2021.08.14.8th.Tokyo.Princess.Cup.Day.6.ENGLISH.720p.WEB.h264-LATE.mkv
Format : Matroska
Format version : Version 4
File size : 4.22 GiB
Duration : 2 h 47 min
Overall bit rate mode : Variable
Overall bit rate : 3 611 kb/s

Video
ID : 1
Format : AVC
Format/Info : Advanced Video
Duration : 2 h 47 min
Bit rate mode : Variable
Bit rate : 3 419 kb/s
Maximum bit rate : 8 000 kb/s
Width : 1 280 pixels
Height : 720 pixels
Display aspect ratio : 16:9
Frame rate mode : Constant
Frame rate : 29.970 (30000/1001) FPS
Color space : YUV
Chroma subsampling : 4:2:0
Bit depth : 8 bits
Scan type : Progressive
Bits/(Pixel*Frame) : 0.124
Stream size : 4.00 GiB (95%)
Default : Yes
Forced : No
Color range : Limited
Color primaries : BT.709
Transfer characteristics : BT.709
Matrix coefficients : BT.709

TJPW 8th Tokyo Princess 

Audio
ID : 2
Format : AAC LC
Format/Info : Advanced Audio
Codec ID : A_AAC-2
Duration : 2 h 47 min
Bit rate : 192 kb/s
Channel(s) : 2 channels
Channel layout : L R
Sampling rate : 48.0 kHz
Frame rate : 46.875 FPS (1024 SPF)
Compression mode : Lossy
Delay relative to video : 3 ms
Stream size : 227 MiB (5%)
Default : Yes
Forced : No

Complete name : Tokyo.Joshi.Pro.2021.08.14.8th.Tokyo.Princess.Cup.Day.6.ENGLISH.1080p.WEB.h264-LATE.mkv
Format : Matroska
Format version : Version 4
File size : 9.74 GiB
Duration : 2 h 47 min
Overall bit rate mode : Variable
Overall bit rate : 8 325 kb/s

TJPW 8th Tokyo Princess 

Video
ID : 1
Format : AVC
Format/Info : Advanced Video
Codec ID : V_MPEG4/ISO/AVC
Duration : 2 h 47 min
Bit rate mode : Variable
Bit rate : 7 941 kb/s
Maximum bit rate : 18.0 Mb/s
Width : 1 920 pixels
Height : 1 080 pixels
Display aspect ratio : 16:9
Frame rate mode : Constant
Frame rate : 29.970 (30000/1001) FPS
Color space : YUV
Chroma subsampling : 4:2:0
Bit depth : 8 bits
Scan type : Progressive
Bits/(Pixel*Frame) : 0.128
Stream size : 9.29 GiB (95%)
Default : Yes
Forced : No
Color range : Limited
Color primaries : BT.709
Transfer characteristics : BT.709
Matrix coefficients : BT.709

TJPW 8th Tokyo Princess 

Audio
ID : 2
Format : AAC LC
Format/Info : Advanced Audio
Codec ID : A_AAC-2
Duration : 2 h 47 min
Bit rate : 384 kb/s
Channel(s) : 2 channels
Channel layout : L R
Sampling rate : 48.0 kHz
Frame rate : 46.875 FPS (1024 SPF)
Compression mode : Lossy
Delay relative to video : 3 ms
Stream size : 457 MiB (5%)
Default : Yes
Forced : No

Complete name : Tokyo.Joshi.Pro.2021.08.14.8th.Tokyo.Princess.Cup.Day.6.ENGLISH.720p.WEB.h264-LATE.mkv
Format : Matroska
Format version : Version 4
File size : 4.22 GiB
Duration : 2 h 47 min
Overall bit rate mode : Variable
Overall bit rate : 3 611 kb/s

TJPW 8th Tokyo Princess 

Video
ID : 1
Format : AVC
Format/Info : Advanced Video
Duration : 2 h 47 min
Bit rate mode : Variable
Bit rate : 3 419 kb/s
Maximum bit rate : 8 000 kb/s
Width : 1 280 pixels
Height : 720 pixels
Display aspect ratio : 16:9
Frame rate mode : Constant
Frame rate : 29.970 (30000/1001) FPS
Color space : YUV
Chroma subsampling : 4:2:0
Bit depth : 8 bits
Scan type : Progressive
Bits/(Pixel*Frame) : 0.124
Stream size : 4.00 GiB (95%)
Default : Yes
Forced : No
Color range : Limited
Color primaries : BT.709
Transfer characteristics : BT.709
Matrix coefficients : BT.709

TJPW 8th Tokyo Princess 

Audio
ID : 2
Format : AAC LC
Format/Info : Advanced Audio
Codec ID : A_AAC-2
Duration : 2 h 47 min
Bit rate : 192 kb/s
Channel(s) : 2 channels
Channel layout : L R
Sampling rate : 48.0 kHz
Frame rate : 46.875 FPS (1024 SPF)
Compression mode : Lossy
Delay relative to video : 3 ms
Stream size : 227 MiB (5%)
Default : Yes
Forced : No

TJPW 8th Tokyo Princess 

Complete name : Tokyo.Joshi.Pro.2021.08.14.8th.Tokyo.Princess.Cup.Day.6.ENGLISH.720p.WEB.h264-LATE.mkv
Format : Matroska
Format version : Version 4
File size : 4.22 GiB
Duration : 2 h 47 min
Overall bit rate mode : Variable
Overall bit rate : 3 611 kb/s

Video
ID : 1
Format : AVC
Format/Info : Advanced Video
Duration : 2 h 47 min
Bit rate mode : Variable
Bit rate : 3 419 kb/s
Maximum bit rate : 8 000 kb/s
Width : 1 280 pixels
Height : 720 pixels
Display aspect ratio : 16:9
Frame rate mode : Constant
Frame rate : 29.970 (30000/1001) FPS
Color space : YUV
Chroma subsampling : 4:2:0
Bit depth : 8 bits
Scan type : Progressive
Bits/(Pixel*Frame) : 0.124
Stream size : 4.00 GiB (95%)
Default : Yes
Forced : No
Color range : Limited
Color primaries : BT.709
Transfer characteristics : BT.709
Matrix coefficients : BT.709

TJPW 8th Tokyo Princess 

Audio
ID : 2
Format : AAC LC
Format/Info : Advanced Audio
Codec ID : A_AAC-2
Duration : 2 h 47 min
Bit rate : 192 kb/s
Channel(s) : 2 channels
Channel layout : L R
Sampling rate : 48.0 kHz
Frame rate : 46.875 FPS (1024 SPF)
Compression mode : Lossy
Delay relative to video : 3 ms
Stream size : 227 MiB (5%)
Default : Yes
Forced : No

Complete name : Tokyo.Joshi.Pro.2021.08.14.8th.Tokyo.Princess.Cup.Day.6.ENGLISH.1080p.WEB.h264-LATE.mkv
Format : Matroska
Format version : Version 4
File size : 9.74 GiB
Duration : 2 h 47 min
Overall bit rate mode : Variable
Overall bit rate : 8 325 kb/s

TJPW 8th Tokyo Princess 

Video
ID : 1
Format : AVC
Format/Info : Advanced Video
Codec ID : V_MPEG4/ISO/AVC
Duration : 2 h 47 min
Bit rate mode : Variable
Bit rate : 7 941 kb/s
Maximum bit rate : 18.0 Mb/s
Width : 1 920 pixels
Height : 1 080 pixels
Display aspect ratio : 16:9
Frame rate mode : Constant
Frame rate : 29.970 (30000/1001) FPS
Color space : YUV
Chroma subsampling : 4:2:0
Bit depth : 8 bits
Scan type : Progressive
Bits/(Pixel*Frame) : 0.128
Stream size : 9.29 GiB (95%)
Default : Yes
Forced : No
Color range : Limited
Color primaries : BT.709
Transfer characteristics : BT.709
Matrix coefficients : BT.709

TJPW 8th Tokyo Princess 

Audio
ID : 2
Format : AAC LC
Format/Info : Advanced Audio
Codec ID : A_AAC-2
Duration : 2 h 47 min
Bit rate : 384 kb/s
Channel(s) : 2 channels
Channel layout : L R
Sampling rate : 48.0 kHz
Frame rate : 46.875 FPS (1024 SPF)
Compression mode : Lossy
Delay relative to video : 3 ms
Stream size : 457 MiB (5%)
Default : Yes
Forced : No

Complete name : Tokyo.Joshi.Pro.2021.08.14.8th.Tokyo.Princess.Cup.Day.6.ENGLISH.720p.WEB.h264-LATE.mkv
Format : Matroska
Format version : Version 4
File size : 4.22 GiB
Duration : 2 h 47 min
Overall bit rate mode : Variable
Overall bit rate : 3 611 kb/s

TJPW 8th Tokyo Princess 

Video
ID : 1
Format : AVC
Format/Info : Advanced Video
Duration : 2 h 47 min
Bit rate mode : Variable
Bit rate : 3 419 kb/s
Maximum bit rate : 8 000 kb/s
Width : 1 280 pixels
Height : 720 pixels
Display aspect ratio : 16:9
Frame rate mode : Constant
Frame rate : 29.970 (30000/1001) FPS
Color space : YUV
Chroma subsampling : 4:2:0
Bit depth : 8 bits
Scan type : Progressive
Bits/(Pixel*Frame) : 0.124
Stream size : 4.00 GiB (95%)
Default : Yes
Forced : No
Color range : Limited
Color primaries : BT.709
Transfer characteristics : BT.709
Matrix coefficients : BT.709

TJPW 8th Tokyo Princess 

Audio
ID : 2
Format : AAC LC
Format/Info : Advanced Audio
Codec ID : A_AAC-2
Duration : 2 h 47 min
Bit rate : 192 kb/s
Channel(s) : 2 channels
Channel layout : L R
Sampling rate : 48.0 kHz
Frame rate : 46.875 FPS (1024 SPF)
Compression mode : Lossy
Delay relative to video : 3 ms
Stream size : 227 MiB (5%)
Default : Yes
Forced : No

TJPW 8th Tokyo Princess 

 

[collapse]

 

 

https://dx-tv.com/

You May Also Like

Leave a Reply

Your email address will not be published. Required fields are marked *

This site uses Akismet to reduce spam. Learn how your comment data is processed.