The Ultimate Fighter S27E12 1080 WEB AMRAP Watch / Download

The Ultimate Fighter S27E12 1080 WEB AMRAP Watch / Download

 

 

 

 


 

dx-tv.com

 

 

 

 

 

 

Complete name : The.Ultimate.Fighter.S27E12.1080p.WEB.H264-AMRAP.mkv
Format : Matroska
File size : 1.53 GiB
Duration : 44mn 0s
Overall bit rate : 4 971 Kbps

Video
ID : 1
Format : AVC
Format/Info : Advanced Video Codec
Codec ID : V_MPEG4/ISO/AVC
Duration : 44mn 0s
Bit rate mode : Variable
Bit rate : 4 744 Kbps
Maximum bit rate : 7 200 Kbps
Width : 1 920 pixels
Height : 1 080 pixels
Display aspect ratio : 16:9
Frame rate : 25.000 fps
Color space : YUV
Chroma subsampling : 4:2:0
Bit depth : 8 bits
Scan type : Progressive
Bits/(Pixel*Frame) : 0.092
Stream size : 1.46 GiB (95%)

Audio
ID : 2
Format : AC-3
Mode extension : CM (complete main)
Codec ID : A_AC3
Duration : 44mn 0s
Bit rate mode : Constant
Bit rate : 128 Kbps
Channel(s) : 2 channels
Channel positions : Front: L R
Sampling rate : 48.0 KHz
Bit depth : 16 bits
Compression mode : Lossy
Stream size : 40.3 MiB (3%)

 

 

 

 

 

 

The Ultimate Fighter S27E12 1080 WEB AMRAP Watch / Download

 

 

 

 

Watch online

 

 

Waiting finish converting video

 

 

Server 1

 

 

 

 

 

 

 

 

 

 

 

 

 

 

 

Server 2

 

 

 

 

 


 

 

 

Uploaded By Site DX-TV.com

 

 

 

open rar file to see this password

 

 

 

 

The password : DX-TV.com

 

 

 

 

Uploaded.net + rapidgator.net

 

 

 

 

 

http://shrt10.com/vT8Jnn

 

 

 

 

 

http://shrt10.com/iOlvF

 

 

 

 

 

 

 

The Ultimate Fighter S27E12 1080 WEB AMRAP Watch / Download