The Ultimate Fighter S27E07 720p HDTV KYR Watch / Download

The Ultimate Fighter S27E07 720p HDTV KYR Watch / Download

 

 

 

 


 

 

dx-tv.com

 

 

 

 
Complete name : The.Ultimate.Fighter.S27E07.720p.HDTV.x264-KYR.mkv
Format : Matroska
File size : 1.79 GiB
Duration : 43mn 4s
Overall bit rate : 5 944 Kbps
Video
ID : 1
Format : AVC
Format/Info : Advanced Video Codec
Codec ID : V_MPEG4/ISO/AVC
Duration : 43mn 4s
Bit rate : 5 442 Kbps
Width : 1 280 pixels
Height : 720 pixels
Display aspect ratio : 16:9
Frame rate : 23.976 fps
Color space : YUV
Chroma subsampling : 4:2:0
Bit depth : 8 bits
Scan type : Progressive
Bits/(Pixel*Frame) : 0.246
Stream size : 1.64 GiB (92%)

Audio
ID : 2
Format : AC-3
Format/Info : Audio Coding 3
Mode extension : CM (complete main)
Codec ID : A_AC3
Duration : 43mn 4s
Bit rate mode : Constant
Bit rate : 384 Kbps
Channel(s) : 6 channels
Channel positions : Front: L C R, Side: L R, LFE
Sampling rate : 48.0 KHz
Bit depth : 16 bits
Compression mode : Lossy
Stream size : 118 MiB (6%)
 

 

 

 

 

 

The Ultimate Fighter S27E07 720p HDTV KYR Watch / Download

 

 

 

 

Watch online

 

 

Waiting finish converting video

 

 

Server 1

 

 

 

 

 

 

 

 

 

 

 

 

 

 

 

Server 2

 

 

 

 

 

 

 

 


 

 

 

 

 

Uploaded By Site DX-TV.com

 

 

 

open rar file to see this password

 

 

 

 

The password is : DX-TV.com

 

 

 

 

 

Uploaded.net + rapidgator.net

 

 

 

 

 

http://shrt10.com/98F6QG

 
http://shrt10.com/6s5Zmu2o
 

 

 

 

The Ultimate Fighter S27E07 720p HDTV KYR Watch / Download