The Ultimate Fighter S27E03 720p HDTV KYR Watch /Download

The Ultimate Fighter S27E03 720p HDTV KYR Watch /Download

 

 

 

 

 

dx-tv

 

 

 

 

 

 
Complete name : the.ultimate.fighter.s27e03.720p.hdtv.x264-kyr.mkv
Format : Matroska
File size : 1.76 GiB
Duration : 43mn 14s
Overall bit rate : 5 821 Kbps

Video
ID : 1
Format : AVC
Format/Info : Advanced Video Codec
Duration : 43mn 14s
Bit rate : 5 321 Kbps
Width : 1 280 pixels
Height : 720 pixels
Display aspect ratio : 16:9
Frame rate : 23.976 fps
Color space : YUV
Chroma subsampling : 4:2:0
Bit depth : 8 bits
Scan type : Progressive
Bits/(Pixel*Frame) : 0.241
Stream size : 1.61 GiB (91%)

Audio
ID : 2
Format : AC-3
Format/Info : Audio Coding 3
Mode extension : CM (complete main)
Codec ID : A_AC3
Duration : 43mn 14s
Bit rate mode : Constant
Bit rate : 384 Kbps
Channel(s) : 6 channels
Channel positions : Front: L C R, Side: L R, LFE
Sampling rate : 48.0 KHz
Bit depth : 16 bits
Compression mode : Lossy
Stream size : 119 MiB (7%)

 

 

 

 

 

 

 

 

 

 

 

 

 

The Ultimate Fighter S27E03 720p HDTV KYR Watch /Download

 

 

 

 

Watch online

 

 

Waiting finish converting video

 

 

Server 1

 

 

 

 

 

 

 

 

 

 

 

 

 

 

 

Server 2

 

 

 

 

 

 

 

 


 

 

 

 

Uploaded By Site DX-TV.com

 

 

 

open rar file to see this password

 

 

 

 

The password is : DX-TV.com

 

 

 

 

720p

 

 

 

 

 

Uploaded.net + rapidgator.net

 

 

 

 

 

 

http://shrt10.com/C9pX

 

 

 

 

 

 

 

 

http://shrt10.com/uY72fc

 

 

 

 

 

 

The Ultimate Fighter S27E03 720p HDTV KYR Watch /Download