The Ultimate Fighter S27 Finale Early Prelims WEB DL /720p Watch / Download

The Ultimate Fighter S27 Finale Early Prelims WEB DL /720p Watch / Download

 

 

 

 


 

 

 

dx-tv.com

 

 

 

 

Complete name : The.Ultimate.Fighter.S27.Finale.Early.Prelims.WEB-DL.mp4
Format : MPEG-4
Format profile : Base Media
Codec ID : isom
File size : 592 MiB
Duration : 59mn 31s
Overall bit rate : 1 391 Kbps

Video
ID : 1
Format : AVC
Format/Info : Advanced Video Codec
Codec ID/Info : Advanced Video Coding
Duration : 59mn 31s
Bit rate mode : Variable
Bit rate : 1 312 Kbps
Width : 852 pixels
Height : 480 pixels
Display aspect ratio : 16:9
Frame rate mode : Variable
Frame rate : 27.285 fps
Original frame rate : 29.970 fps
Minimum frame rate : 0.033 fps
Maximum frame rate : 29.970 fps
Color space : YUV
Chroma subsampling : 4:2:0
Bit depth : 8 bits
Scan type : Progressive
Bits/(Pixel*Frame) : 0.118
Stream size : 559 MiB (94%)

Audio
ID : 2
Format : AAC
Format/Info : Advanced Audio Codec
Format profile : LC
Codec ID : 40
Duration : 59mn 31s
Bit rate mode : Variable
Bit rate : 72.0 Kbps
Maximum bit rate : 87.2 Kbps
Channel(s) : 2 channels
Channel positions : Front: L R
Sampling rate : 44.1 KHz
Compression mode : Lossy
Stream size : 30.1 MiB (5%)

 

 

 

 

 
[EVENT]: The.Ultimate.Fighter.S27.Finale.Early.Prelims.720p.WEB-DL.mp4
[SIZE]: 1.68 GB
[SOURCE]: Fight Pass
[CONTAINER]: mp4
[RESOLUTION]: 1280 x 720 @ 29.970 FPS
[VIDEO]: H264 @ 4500 Kbps
[AUDIO]: AAC @ 128 kbps
[Length]: 00:59:31
[Language]: English
 

 

 

 

 

The Ultimate Fighter S27 Finale Early Prelims WEB DL /720p Watch / Download

 

 

 

 

Watch online

 

 

Waiting finish converting video

 

 

Server 1

 

 

 

 

 

 

 

 

 

 

 

 

 

 

 

 

Server 2

 

 

 

 

 

 

 

 


 

 

 

 

 

 

Uploaded By Site DX-TV.com

 

 

 

open rar file to see this password

 

 

 

 

The password : DX-TV.com

 

 

 

 

400p+720p

 

 

 

 

 

Uploaded.net + rapidgator.net

 

 

 

 

 

 
http://shrt10.com/ON2RS
 

http://shrt10.com/Xaacre
 

http://shrt10.com/Izsk

 
http://shrt10.com/FP7KU
 

 

 

 

 

 

The Ultimate Fighter S27 Finale Early Prelims WEB DL /720p Watch / Download