The New Beginning in Nagoya NJPW 2021 01 30 Eng/ Japan

The New Beginning in Nagoya NJPW 2021 01 30 English/ Japanese DX-TV

The New Beginning in Nagoya

 The New Beginning in Nagoya

 

Download Links with premium High Speed   

 

 

dropapk.to

http://shrt10.com/x3AuVGf
http://shrt10.com/tVLcoud

 

 

nitroflare.com

http://shrt10.com/DgI9gO
http://shrt10.com/LSM2CxkH

 

 

rapidgator.net

http://shrt10.com/Lf5Ge
http://shrt10.com/TzIH3QX

 

 

uploaded.net

http://shrt10.com/OMxIkkY
http://shrt10.com/EAuZW7YV8

 

 

 

Watch The New Beginning in Nagoya online

 

Server 1

 

English

 

 

The New Beginning in Nagoya

watch now

 

 

 

 

Server-2

 

Japanese

 

 

The New Beginning in Nagoya

watch now

 

 

Uploaded By Site DX-TV.com

 

 

Complete name : NJPW.2021.01.30.The.New.Beginning.in.Nagoya.ENGLISH.WEB.h264-LATE.mkv
Format : Matroska
Format version : Version 4
File size : 2.15 GiB
Duration : 2 h 40 min
Overall bit rate : 1 925 kb/s

The New Beginning 

Video
ID : 1
Format : AVC
Format/Info : Advanced Video
Duration : 2 h 40 min
Bit rate : 1 823 kb/s
Width : 960 pixels
Height : 540 pixels
Display aspect ratio : 16:9
Frame rate mode : Constant
Frame rate : 30.000 FPS
Color space : YUV
Chroma subsampling : 4:2:0
Bit depth : 8 bits
Scan type : Progressive
Bits/(Pixel*Frame) : 0.117
Stream size : 2.04 GiB (95%)
Default : Yes
Forced : No
Color range : Limited
Color primaries : BT.601 PAL
Transfer characteristics : BT.601
Matrix coefficients : BT.470 System B/G

The New Beginning 

Audio
ID : 2
Format : AAC LC
Format/Info : Advanced Audio
Codec ID : A_AAC-2
Duration : 2 h 40 min
Bit rate : 99.4 kb/s
Channel(s) : 2 channels
Channel layout : L R
Sampling rate : 44.1 kHz
Frame rate : 43.066 FPS (1024 SPF)
Compression mode : Lossy
Stream size : 114 MiB (5%)
Language : English
Default : Yes
Forced : No

Complete name : NJPW.2021.01.30.The.New.Beginning.in.Nagoya.JAPANESE.WEB.h264-LATE.mkv
Format : Matroska
Format version : Version 4
File size : 2.63 GiB
Duration : 2 h 40 min
Overall bit rate : 2 351 kb/s

The New Beginning 

Video
ID : 1
Format : AVC
Format/Info : Advanced Video
Duration : 2 h 40 min
Bit rate : 2 249 kb/s
Width : 1 280 pixels
Height : 720 pixels
Display aspect ratio : 16:9
Frame rate mode : Constant
Frame rate : 30.000 FPS
Color space : YUV
Chroma subsampling : 4:2:0
Bit depth : 8 bits
Scan type : Progressive
Bits/(Pixel*Frame) : 0.081
Stream size : 2.51 GiB (96%)
Default : Yes
Forced : No
Color range : Limited
Color primaries : BT.709
Transfer characteristics : BT.709
Matrix coefficients : BT.709

The New Beginning 

Audio
ID : 2
Format : AAC LC
Format/Info : Advanced Audio
Codec ID : A_AAC-2
Duration : 2 h 40 min
Bit rate : 99.4 kb/s
Channel(s) : 2 channels
Channel layout : L R
Sampling rate : 44.1 kHz
Frame rate : 43.066 FPS (1024 SPF)
Compression mode : Lossy
Stream size : 114 MiB (4%)
Language : English
Default : Yes
Forced : No

The New Beginning 

 

https://dx-tv.com/

You May Also Like

Leave a Reply

Your email address will not be published. Required fields are marked *

This site uses Akismet to reduce spam. Learn how your comment data is processed.