SUP Swing of The Axe 2020 10 10 720p Full Show Online

Watch SUP Swing of The Axe 2020 10 10 720p Full Show Online DX-TV

 

SUP Swing of The Axe

 

 SUP Swing of The Axe

 

SUP Swing of The Axe 2020 10 10 720p Full Show Online

 

Southern Underground Pro 10/9/2020 Swing of the Axe results from The Coliseum at The Marion County Fairgrounds in Indianapolis, Indiana.

  1. Southern Underground Pro Tag Team Championship Match: Violence Is Forever (Dominic Garrini and Kevin Ku) (c) def. To Infinity and Beyond (Colin Delaney and Cheech) to retain the S.U.P. Tag Team Championships
  2. AJ Gray def. Nolan Edward
  3. Allie Kat def. Davienne
  4. Daniel Makabe def. Lee Moriarty
  5. O Shay Edwards def. Jake Something
  6. Anthony Henry def. Jaden Newman
  7. Brett Ison def. Erick Stevens
  8. Southern Underground Pro Bonestorm Championship Match: AC Mack (c) def. Manders to retain the S.U.P. Bonestorm Championship
  9. Southern Underground Pro Bonestorm Championship Match: AJ Gray def. AC Mack (c) to become the new S.U.P. Bonestorm Champion

SUP Swing of The Axe

Garrini and Cheech get us going, but Cheech instantly heads into the ropes as Garrini went for a submission early. Back inside, Garrini goes for a knee bar, but again Cheech got to the ropes before he took down Garrini for just a one-count. Garrini goes back to the mat as he and Cheech went back and forth on a cross armbar, but again they end up in the ropes as our stop-start beginning continued. Delaney and Ku come in next, with Delaney springing into the ring, presumably powered by his backpack, which he quickly gets rid of.

SUP Swing of The Axe

A chop battle breaks out before Ku just kicked down Delaney off the ropes… then grabbed him by the ear as Garrini came in. Double-team PKs sandwich Delaney for a near-fall, but the challengers do some double-team of their own, as Cheech kicks a turnbuckle into Garrini ahead of some double-team armdrags and stomps for a near-fall. Cheech takes Garrini into the corner before a shoulder charge led to a two-count, with Delaney coming in for a kick to the gut. An elbow to the back of the head and a chop followed, as Delaney then had to rake the eyes to cut off Garrini’s attempted comeback. A senton atomico from Cheech gets a two-count, as Delaney returned to rake the eyes as the champions remained on the back foot.

SUP Swing of The Axe

Just as I type that, Garrini clears the apron and clotheslines his way through Delaney, before he dives in to tag in Ku, who nails a diving uppercut out of the corner. A backflip out of the corner led to a Dragon suplex from Ku, before he booted Delaney off the apron… an Alphamare Waterslide gets a near-fall for Ku. Garrini’s tagged back in, but Delaney’s back being a nuisance, springboarding in for a cutter as a German suplex nearly gets Cheech the win. The challengers try to build, catching Ku with an elbow before a wacky draping DDT/elevated facebuster got a pair of two-counts for the challengers. They look to go for more, but Garrini fought out as a Parade of Moves started, suddenly ending with a short piledriver from Garrini on Delaney for a near-fall.

SUP Swing of The Axe

Complete name : SUP Swing of The Axe 2020 10 10 720p WEB H264 DX-TV.mp4
Format : MPEG-4
Format profile : Base Media
Codec ID : isom
File size : 1.97 GiB
Duration : 2 h 12 min
Overall bit rate : 2 124 kb/s
application : Lavf57.71.100

SUP Swing of The Axe

Video
ID : 1
Format : AVC
Format/Info : Advanced
Duration : 2 h 12 min
Bit rate : 1 991 kb/s
Width : 1 280 pixels
Height : 720 pixels
Display aspect ratio : 16:9
Frame rate mode : Variable
Frame rate : 29.970 FPS
Color space : YUV
Chroma subsampling : 4:2:0
Bit depth : 8 bits
Scan type : Progressive
Bits/(Pixel*Frame) : 0.072
Stream size : 1.84 GiB (94%)
Codec configuration box : avcC

SUP Swing of The Axe

Audio
ID : 2
Format : AAC LC
Format/Info : Advanced Audio
Codec ID : mp4a-40-2
Duration : 2 h 12 min
Bit rate mode : Constant
Bit rate : 128 kb/s
Channel(s) : 2 channels
Channel layout : L R
Sampling rate : 44.1 kHz
Frame rate : 43.066 FPS (1024 SPF)
Compression mode : Lossy
Stream size : 121 MiB (6%)
Default : Yes
Alternate group : 1

 

 

 

SUP Swing of The Axe 2020 10 10 720p Full Show Online

 

 

Watch online

 

 

Server 1

 

 

 

 

watch now

 

 

 

 

Server-2

 

 

 

watch now

 

 

 

 

Server-3

 

 

 

SUP Swing of The Axe

 

 

 

 

Uploaded By Site DX-TV.com

 

 

 

 

Download Free Links with normal and high Speed [ more 14 hosts ]  

 

 

 

 

http://shrt10.com/yWMl8Hk1
http://shrt10.com/MVlHrgBsR
http://shrt10.com/fsgl2Ho
http://shrt10.com/GMr26
http://shrt10.com/iCO1Ec
http://shrt10.com/RZiqt
http://shrt10.com/uSlT0
http://shrt10.com/faQHj
http://shrt10.com/vqEWkB
http://shrt10.com/LWDQ6u
http://shrt10.com/YVTdD43p

 

 

 

Download Links with premium High Speed   

 

 

 

dropapk.to

 

 

 

nitroflare.com

 

 

 

rapidgator.net

 

 

 

uploaded.net

 

 

 

uploadgig.com

 

 

 

 

 

dx-tv.com

 

urlfree.net

Leave a Reply

Your email address will not be published. Required fields are marked *

This site uses Akismet to reduce spam. Learn how your comment data is processed.