free watch Submission Underground 8 2019 05 13 720p DX-TV

 

 

 


 

 

dx-tv.com
shrt10.com

 

 

 

 

 

Submission Underground 8 2019 05 13 720p DX-TV

 

“I’m trying to decide what I’m doing next if I’m going to keep fighting or just do grappling,” Shields said in his post-match interview with Chael Sonnen. “I’m trying to figure it out.”

The action spilled over into overtime, where each side is given an opportunity to be in a good position for a submission. Neither could capitalize through three overtime periods, and the difference-maker was Shields’ effort in holding position while Vanderford tried to escape.

Shields struggled to find an opponent for the card before Vanderford, the husband of UFC women’s flyweight contender Paige VanZant that was introduced as “Mr. VanZant,” stepped up and accepted the headlining spot at Roseland Theater in Portland, Ore.

The regulation for the match, which was contested under EBI rules, was relatively uneventful. It start primarily in the standing position, with both men doing their best to get an advantage that could lead to a submission. Unfortunately, it was to no avail.

 

 

Night 3: Grand Rapids

 

During a tag team match between The Kingdom and Villain Enterprises PCO and Brody King, PCO pinned current ROH World Champion Matt Taven. The following week on the Ring of Honor television taping, it was announced that Matt Taven would defend his title against PCO, which was made official.

At G1 Supercard, the Guerillas of Destiny won a winner takes all match for both the ROH Tag Team Championship and the IWGP Tag Team Championship on the line. At Masters of the Craft, Jay Lethal and Jonathan Gresham won a 30-minute Iron Man Match against Lifeblood Mark Haskins and Tracy Williams 2-1 to earn an opportunity against the Guerillas of Destiny. A week later during the ROH television tapings, the match was made official.

 

No. Results Stipulations
1 Coast 2 Coast defeated Alex Coughlin and Karl Fredericks Tag team match
2 Kelly Klein (c) defeated Stacy Shadows Singles match for the Women of Honor World Championship
3 Dalton Castle defeated Cheeseburger and Clark Connors Three-way match
4 The Kingdom (Matt Taven, TK O’Ryan and Vinny Marseglia) defeated Guerrillas of Destiny (Tama Tonga and Tanga Loa) and HIKULEO Six-man tag team match
5 Flip Gordon defeated Rhett Titus Singles match
6 Los Ingobernables de Japon (Evil and Sanada) defeated The Bouncers Tag team match
7 Tracy Williams defeated Rush, Eli Isom and PJ Black Four Corner Survival match
8 Matt Taven (c) defeated Mark Haskins Singles match for the ROH World Championship
9 Jay Lethal, Hirooki Goto, Yuji Nagata, Jeff Cobb and Satoshi Kojima defeated The Briscoes (Jay Briscoe and Mark Briscoe), Bully Ray, Shane Taylor and Silas Young Ten-man tag team match

 

 

 

Complete name : Submission.Underground.8.720p.WEB-DL.mp4
Format : MPEG-4
Format profile : Base Media / Version 2
Codec ID : mp42 (mp42)
File size : 2.43 GiB
Duration : 2 h 43 min
Overall bit rate : 2 135 kb/s
Codirector : codirector
Production studio : studio
ContentType : Unknown Type
Encoded date : UTC 2019-05-13 20:26:29
Tagged date : UTC 2019-05-13 20:26:29

Video
ID : 1
Format : AVC
Format/Info : Advanced Video Codec
Codec ID : avc1
Codec ID/Info : Advanced Video Coding
Duration : 2 h 43 min
Source duration : 2 h 43 min
Bit rate : 2 000 kb/s
Width : 960 pixels
Height : 540 pixels
Display aspect ratio : 16:9
Frame rate mode : Constant
Frame rate : 29.970 (30000/1001) FPS
Color space : YUV
Chroma subsampling : 4:2:0
Bit depth : 8 bits
Scan type : Progressive
Bits/(Pixel*Frame) : 0.129
Stream size : 2.28 GiB (94%)
Source stream size : 2.28 GiB (94%)
Language : English
Codec configuration box : avcC

Audio
ID : 2
Format : AAC LC
Format/Info : Advanced Audio Codec Low Complexity
Codec ID : mp4a-40-2
Duration : 2 h 43 min
Bit rate mode : Constant
Bit rate : 128 kb/s
Channel(s) : 2 channels
Channel layout : L R
Sampling rate : 44.1 kHz
Frame rate : 43.066 FPS (1024 SPF)
Compression mode : Lossy
Stream size : 149 MiB (6%)
Title : Stereo
Language : English
Default : Yes
Alternate group : 1

 

 

Submission Underground 8 2019 05 13 720p DX-TV

 

 

 

 

 

ROH War Of The Worlds 2019: CHICAGO: Final Lineup
THE BRISCOES VS GUERRILLAS OF DESTINY
EVIL AND SANADA VS KOJIMA AND NAGATA
HIKULEO VS HIROOKI GOTO
PJ BLACK VS KARL FREDERICKS
Four Corner Survival Match: JEFF COBB VS JAY LETHAL VS RUSH VS PCO

 

 

 

 

 

 

 

Watch online

 

 

Waiting finish converting video

 

 

Server 1

 

 

 

 

 

 

 

 

 

 

 

Server 2

 

 

 

 

 

 

 

 

 

 

 

 

 

 

 

Uploaded By Site DX-TV.com

 

 

 

open rar file to see this password

 

 

 

 

The password : DX-TV.com

 

 

 

 

 

https://shrt10.com/6VQCt
 

 
https://shrt10.com/qmIAlX
 

 
https://shrt10.com/mkYK
 

 
https://shrt10.com/M03uu