Straight Up Steve Austin S02E04 Brett Favre DX-TV

Straight Up Steve Austin S02E04 Brett Favre DX-TV

Straight Up Steve Austin

 Straight Up Steve Austin

 

 

 

Download Links with High Speed


 

Dopapk

 

 

Show Links

 

 

Nitroflare

 

 

Show Links

 

 

Rapidgator

 

 

Show Links

 

http://shrt10.com/0Ingi

[collapse]

 

 

Uploaded

 

 

Show Links

 

http://shrt10.com/6h56jx

[collapse]

 

 

Watch Straight Up Steve Austin online

 

Server 1

 

 

 

 

Straight Up Steve Austin

 

 

 

 

Server-2

 

 

 

 

watch now

 

 

Uploaded By Site DX-TV.com

 

 

Show Info This Show

 

 

Complete name : Straight.Up.Steve.Austin.S02E04.Brett.Favre.720p.HDTV.x264-NWCHD.mp4
Format : MPEG-4
Format profile : Base Media
Codec ID : mp42
File size : 716 MiB
Duration : 21 min 20 s
Overall bit rate mode : Variable
Overall bit rate : 4 687 kb/s

Straight Up

Video
ID : 1
Format : AVC
Format/Info : Advanced Video
Duration : 21 min 20 s
Bit rate : 4 500 kb/s
Width : 1 280 pixels
Height : 720 pixels
Display aspect ratio : 16:9
Frame rate mode : Constant
Frame rate : 29.970 (30000/1001) FPS
Color space : YUV
Chroma subsampling : 4:2:0
Bit depth : 8 bits
Scan type : Progressive
Bits/(Pixel*Frame) : 0.163
Stream size : 685 MiB (96%)
Color range : Limited
Color primaries : BT.709
Transfer characteristics : BT.709
Matrix coefficients : BT.709
Codec configuration box : avc

Straight Up

Audio
ID : 2
Format : AAC LC
Format/Info : Advanced Audio
Codec ID : mp4a-40-2
Duration : 21 min 20 s
Bit rate mode : Variable
Bit rate : 192 kb/s
Channel(s) : 2 channels
Channel layout : L R
Sampling rate : 48.0 kHz
Frame rate : 46.875 FPS (1024 SPF)
Compression mode : Lossy
Stream size : 29.4 MiB (4%)
Title : Stereo / Stereo
Language : English
Default : Yes
Alternate group : 1

Straight Up

Audio
ID : 2
Format : AAC LC
Format/Info : Advanced Audio
Codec ID : mp4a-40-2
Duration : 21 min 20 s
Bit rate mode : Variable
Bit rate : 192 kb/s
Channel(s) : 2 channels
Channel layout : L R
Sampling rate : 48.0 kHz
Frame rate : 46.875 FPS (1024 SPF)
Compression mode : Lossy
Stream size : 29.4 MiB (4%)
Title : Stereo / Stereo
Language : English
Default : Yes
Alternate group : 1

Audio
ID : 2
Format : AAC LC
Format/Info : Advanced Audio
Codec ID : mp4a-40-2
Duration : 21 min 20 s
Bit rate mode : Variable
Bit rate : 192 kb/s
Channel(s) : 2 channels
Channel layout : L R
Sampling rate : 48.0 kHz
Frame rate : 46.875 FPS (1024 SPF)
Compression mode : Lossy
Stream size : 29.4 MiB (4%)
Title : Stereo / Stereo
Language : English
Default : Yes
Alternate group : 1

Straight Up

[collapse]

 

 

https://dx-tv.com/