Stardom Wrestling 5 STAR Grand Prix 2021 09 25 Final Free

Stardom Wrestling 5 STAR Grand Prix 2021 09 25 Final Full Show Online Free Replay DX-TV

Stardom Wrestling 

 Stardom Wrestling 5 STAR Grand

 

 

 

Download Links with premium High Speed
 


Dopapk

 

 

Show Links

 

 

 

 

Nitroflare

 

 

Show Links

 

 

Rapidgator

 

 

Show Links

 

 

 

Uploaded
 

 

Show Links

 

 

 

 

 

Watch online

 

Server 1

 

 

 

 

Stardom Wrestling 

 

 

 

 

Server-2

 

 

 

 

watch now

 

 

 

|Server-3

 

 

 

 

watch now

 

 

Uploaded By Site DX-TV.com

 

 

Open Info Show

 

 

Complete name : 2021.09.25.Stardom.5STAR.Grand.Prix.2021.Final.(Samurai.TV).mp4
Format : MPEG-4
Format profile : Base Media
Codec ID : so2/avc1/mp41)
File size : 4.04 GiB
Duration : 3 h 26 min
Overall bit rate : 2 797 kb/s

Stardom Wrestling 

Video
ID : 1
Format : AVC
Format/Info : Advanced Video
Duration : 3 h 26 min
Bit rate : 2 589 kb/s
Width : 1 280 pixels
Height : 720 pixels
Display aspect ratio : 16:9
Frame rate mode : Constant
Frame rate : 60.000 FPS
Color space : YUV
Chroma subsampling : 4:2:0
Bit depth : 8 bits
Scan type : Progressive
Bits/(Pixel*Frame) : 0.047
Stream size : 3.74 GiB (93%)
Color primaries : BT.709
Transfer characteristics : BT.709
Matrix coefficients : BT.709
Codec configuration box : avc

Stardom Wrestling 

Audio
ID : 2
Format : AAC LC
Format/Info : Advanced
Codec ID : mp4a-40-2
Duration : 3 h 26 min
Bit rate mode : Constant
Bit rate : 192 kb/s
Channel(s) : 2 channels
Channel layout : L R
Sampling rate : 48.0 kHz
Frame rate : 46.875 FPS (1024 SPF)
Compression mode : Lossy
Stream size : 284 MiB (7%)
Default : Yes
Alternate group : 1

Stardom Wrestling 

Video
ID : 1
Format : AVC
Format/Info : Advanced Video
Duration : 3 h 26 min
Bit rate : 2 589 kb/s
Width : 1 280 pixels
Height : 720 pixels
Display aspect ratio : 16:9
Frame rate mode : Constant
Frame rate : 60.000 FPS
Color space : YUV
Chroma subsampling : 4:2:0
Bit depth : 8 bits
Scan type : Progressive
Bits/(Pixel*Frame) : 0.047
Stream size : 3.74 GiB (93%)
Color primaries : BT.709
Transfer characteristics : BT.709
Matrix coefficients : BT.709
Codec configuration box : avc

Stardom Wrestling 

Audio
ID : 2
Format : AAC LC
Format/Info : Advanced
Codec ID : mp4a-40-2
Duration : 3 h 26 min
Bit rate mode : Constant
Bit rate : 192 kb/s
Channel(s) : 2 channels
Channel layout : L R
Sampling rate : 48.0 kHz
Frame rate : 46.875 FPS (1024 SPF)
Compression mode : Lossy
Stream size : 284 MiB (7%)
Default : Yes
Alternate group : 1

https://dx-tv.com/

 

 

 

 

 

You May Also Like

Leave a Reply

Your email address will not be published. Required fields are marked *

This site uses Akismet to reduce spam. Learn how your comment data is processed.