Stardom Tokyo Dream Cinderella 2021 06 12 Online Free Replay DX-TV

Contents show

Stardom Tokyo Dream Cinderella 

Stardom Tokyo Dream Cinderella 

 

 

 

Download Links with premium High Speed


 

Dopapk

 

 

Show Links

 

http://shrt10.com/sV9kP
http://shrt10.com/qHnJf

http://shrt10.com/33U6UuYUo
http://shrt10.com/U06mLt

 

[collapse]

 

 

Nitroflare

 

 

Show Links

 

http://shrt10.com/yqaavct
http://shrt10.com/BCQ9DmH6

http://shrt10.com/FWmc0T
http://shrt10.com/FltJGuQE

 

[collapse]

 

 

Rapidgator

 

 

Show Links

 

http://shrt10.com/6WeBzv3hc
http://shrt10.com/z7qdq

http://shrt10.com/UkrUO2
http://shrt10.com/JdM2fNp7

 

[collapse]

 

 

Uploaded

 

 

Show Links

 

http://shrt10.com/KqQdbHfr

http://shrt10.com/wKU8y
http://shrt10.com/E7bX8Z

 

[collapse]

 

 

Watch online

 

Server 1

 

 

 

 

Stardom Tokyo Dream Cinderella 

watch now

 

 

 

 

Server-2

 

 

 

 

Stardom Tokyo Dream Cinderella 

watch now

 

 

 

|Server-4

 

 

 

 

watch now

Stardom Tokyo Dream Cinderella 

 

 

Uploaded By Site DX-TV.com

 

 

Show Info This Show

 

Stardom Tokyo Dream Cinderella 

Complete name : 2021.06.12.Stardom.Tokyo.Dream.Cinderella.ENGLISH.Commentary.mp4
Format : MPEG-4
Format profile : Base Media
Codec ID : isom
File size : 5.21 GiB
Duration : 3 h 20 min
Overall bit rate : 3 724 kb/s

Video
ID : 1
Format : AVC
Format/Info : Advanced Video
Duration : 3 h 20 min
Bit rate : 3 520 kb/s
Width : 1 920 pixels
Height : 1 080 pixels
Display aspect ratio : 16:9
Frame rate mode : Variable
Frame rate : 30.000 FPS
Minimum frame rate : 10.000 FPS
Maximum frame rate : 30.303 FPS
Color space : YUV
Chroma subsampling : 4:2:0
Bit depth : 8 bits
Scan type : Progressive
Bits/(Pixel*Frame) : 0.057
Stream size : 4.93 GiB (95%)
Color range : Limited
Color primaries : BT.709
Transfer characteristics : BT.709
Matrix coefficients : BT.709
Codec configuration box : avcC

Stardom Tokyo Dream Cinderella 

Audio
ID : 2
Format : AAC LC
Format/Info : Advanced Audio
Codec ID : mp4a-40-2
Duration : 3 h 20 min
Duration_FirstFrame : -43 ms
Bit rate mode : Constant
Bit rate : 192 kb/s
Channel(s) : 2 channels
Channel layout : L R
Sampling rate : 48.0 kHz
Frame rate : 46.875 FPS (1024 SPF)
Compression mode : Lossy
Stream size : 275 MiB (5%)
Default : Yes
Alternate group : 1

Complete name : 2021.06.12.Stardom.Tokyo.Dream.Cinderella.Special.Edition.(Samurai.TV).mp4
Format : MPEG-4
Format profile : Base Media
Codec ID : isom
File size : 4.31 GiB
Duration : 3 h 16 min
Overall bit rate : 3 135 kb/s

Stardom Tokyo Dream Cinderella 

Video
ID : 1
Format : AVC
Format/Info : Advanced Video
Duration : 3 h 16 min
Bit rate : 2 927 kb/s
Width : 1 280 pixels
Height : 720 pixels
Display aspect ratio : 16:9
Frame rate mode : Constant
Frame rate : 60.000 FPS
Color space : YUV
Chroma subsampling : 4:2:0
Bit depth : 8 bits
Scan type : Progressive
Bits/(Pixel*Frame) : 0.053
Stream size : 4.03 GiB (93%)
Color primaries : BT.709
Transfer characteristics : BT.709
Matrix coefficients : BT.709
Codec configuration box : avcC

Audio
ID : 2
Format : AAC LC
Format/Info : Advanced Audio
Codec ID : mp4a-40-2
Duration : 3 h 16 min
Bit rate mode : Constant
Bit rate : 192 kb/s
Channel(s) : 2 channels
Channel layout : L R
Sampling rate : 48.0 kHz
Frame rate : 46.875 FPS (1024 SPF)
Compression mode : Lossy
Stream size : 270 MiB (6%)
Default : Yes
Alternate group : 1

Stardom Tokyo Dream Cinderella 

Complete name : 2021.06.12.Stardom.Tokyo.Dream.Cinderella.ENG.SD.mp4
Format : MPEG-4
Format profile : Base Media
Codec ID : isom
File size : 1.55 GiB
Duration : 3 h 20 min
Overall bit rate : 1 106 kb/s

Video
ID : 1
Format : AVC
Format/Info : Advanced Video
Duration : 3 h 20 min
Bit rate : 980 kb/s
Width : 850 pixels
Height : 480 pixels
Display aspect ratio : 16:9
Original display aspect rat : 16:9
Frame rate mode : Variable
Frame rate : 25.000 FPS
Minimum frame rate : 8.333 FPS
Maximum frame rate : 25.000 FPS
Color space : YUV
Chroma subsampling : 4:2:0
Bit depth : 8 bits
Scan type : Progressive
Bits/(Pixel*Frame) : 0.096
Stream size : 1.36 GiB (88%)

Stardom Tokyo Dream Cinderella 

Audio
ID : 2
Format : AAC LC
Format/Info : Advanced Audio
Codec ID : mp4a-40-2
Duration : 3 h 20 min
Bit rate mode : Constant
Bit rate : 128 kb/s
Channel(s) : 2 channels
Channel layout : L R
Sampling rate : 44.1 kHz
Frame rate : 43.066 FPS
Compression mode : Lossy
Stream size : 184 MiB (12%)
Default : Yes
Alternate group : 1

Complete name : 2021.06.12.Stardom.Tokyo.Dream.Cinderella.JAP.SD.mp4
Format : MPEG-4
Format profile : Base Media
Codec ID : isom
File size : 1.47 GiB
Duration : 3 h 16 min
Overall bit rate : 1 069 kb/s

Stardom Tokyo Dream Cinderella 

Video
ID : 1
Format : AVC
Format/Info : Advanced Video
Duration : 3 h 16 min
Bit rate : 935 kb/s
Width : 850 pixels
Height : 480 pixels
Display aspect ratio : 16:9
Original display aspect rat : 16:9
Frame rate mode : Variable
Frame rate : 25.000 FPS
Minimum frame rate : 8.333 FPS
Maximum frame rate : 25.000 FPS
Color space : YUV
Chroma subsampling : 4:2:0
Bit depth : 8 bits
Scan type : Progressive
Bits/(Pixel*Frame) : 0.092
Stream size : 1.28 GiB (87%)

Audio
ID : 2
Format : AAC LC
Format/Info : Advanced Audio
Codec ID : mp4a-40-2
Duration : 3 h 16 min
Bit rate mode : Constant
Bit rate : 128 kb/s
Channel(s) : 2 channels
Channel layout : L R
Sampling rate : 44.1 kHz
Frame rate : 43.066 FPS (1024 SPF)
Compression mode : Lossy
Stream size : 180 MiB (12%)
Default : Yes
Alternate group : 1

Stardom Tokyo Dream Cinderella 

 

Complete name : 2021.06.12.Stardom.Tokyo.Dream.Cinderella.ENGLISH.Commentary.mp4
Format : MPEG-4
Format profile : Base Media
Codec ID : isom
File size : 5.21 GiB
Duration : 3 h 20 min
Overall bit rate : 3 724 kb/s

Video
ID : 1
Format : AVC
Format/Info : Advanced Video
Duration : 3 h 20 min
Bit rate : 3 520 kb/s
Width : 1 920 pixels
Height : 1 080 pixels
Display aspect ratio : 16:9
Frame rate mode : Variable
Frame rate : 30.000 FPS
Minimum frame rate : 10.000 FPS
Maximum frame rate : 30.303 FPS
Color space : YUV
Chroma subsampling : 4:2:0
Bit depth : 8 bits
Scan type : Progressive
Bits/(Pixel*Frame) : 0.057
Stream size : 4.93 GiB (95%)
Color range : Limited
Color primaries : BT.709
Transfer characteristics : BT.709
Matrix coefficients : BT.709
Codec configuration box : avcC

Stardom Tokyo Dream Cinderella 

Audio
ID : 2
Format : AAC LC
Format/Info : Advanced Audio
Codec ID : mp4a-40-2
Duration : 3 h 20 min
Duration_FirstFrame : -43 ms
Bit rate mode : Constant
Bit rate : 192 kb/s
Channel(s) : 2 channels
Channel layout : L R
Sampling rate : 48.0 kHz
Frame rate : 46.875 FPS (1024 SPF)
Compression mode : Lossy
Stream size : 275 MiB (5%)
Default : Yes
Alternate group : 1

Complete name : 2021.06.12.Stardom.Tokyo.Dream.Cinderella.Special.Edition.(Samurai.TV).mp4
Format : MPEG-4
Format profile : Base Media
Codec ID : isom
File size : 4.31 GiB
Duration : 3 h 16 min
Overall bit rate : 3 135 kb/s

Stardom Tokyo Dream Cinderella 

Video
ID : 1
Format : AVC
Format/Info : Advanced Video
Duration : 3 h 16 min
Bit rate : 2 927 kb/s
Width : 1 280 pixels
Height : 720 pixels
Display aspect ratio : 16:9
Frame rate mode : Constant
Frame rate : 60.000 FPS
Color space : YUV
Chroma subsampling : 4:2:0
Bit depth : 8 bits
Scan type : Progressive
Bits/(Pixel*Frame) : 0.053
Stream size : 4.03 GiB (93%)
Color primaries : BT.709
Transfer characteristics : BT.709
Matrix coefficients : BT.709
Codec configuration box : avcC

Audio
ID : 2
Format : AAC LC
Format/Info : Advanced Audio
Codec ID : mp4a-40-2
Duration : 3 h 16 min
Bit rate mode : Constant
Bit rate : 192 kb/s
Channel(s) : 2 channels
Channel layout : L R
Sampling rate : 48.0 kHz
Frame rate : 46.875 FPS (1024 SPF)
Compression mode : Lossy
Stream size : 270 MiB (6%)
Default : Yes
Alternate group : 1

Stardom Tokyo Dream Cinderella 

Complete name : 2021.06.12.Stardom.Tokyo.Dream.Cinderella.ENG.SD.mp4
Format : MPEG-4
Format profile : Base Media
Codec ID : isom
File size : 1.55 GiB
Duration : 3 h 20 min
Overall bit rate : 1 106 kb/s

Video
ID : 1
Format : AVC
Format/Info : Advanced Video
Duration : 3 h 20 min
Bit rate : 980 kb/s
Width : 850 pixels
Height : 480 pixels
Display aspect ratio : 16:9
Original display aspect rat : 16:9
Frame rate mode : Variable
Frame rate : 25.000 FPS
Minimum frame rate : 8.333 FPS
Maximum frame rate : 25.000 FPS
Color space : YUV
Chroma subsampling : 4:2:0
Bit depth : 8 bits
Scan type : Progressive
Bits/(Pixel*Frame) : 0.096
Stream size : 1.36 GiB (88%)

Stardom Tokyo Dream Cinderella 

Audio
ID : 2
Format : AAC LC
Format/Info : Advanced Audio
Codec ID : mp4a-40-2
Duration : 3 h 20 min
Bit rate mode : Constant
Bit rate : 128 kb/s
Channel(s) : 2 channels
Channel layout : L R
Sampling rate : 44.1 kHz
Frame rate : 43.066 FPS
Compression mode : Lossy
Stream size : 184 MiB (12%)
Default : Yes
Alternate group : 1

Complete name : 2021.06.12.Stardom.Tokyo.Dream.Cinderella.JAP.SD.mp4
Format : MPEG-4
Format profile : Base Media
Codec ID : isom
File size : 1.47 GiB
Duration : 3 h 16 min
Overall bit rate : 1 069 kb/s

Stardom Tokyo Dream Cinderella 

Video
ID : 1
Format : AVC
Format/Info : Advanced Video
Duration : 3 h 16 min
Bit rate : 935 kb/s
Width : 850 pixels
Height : 480 pixels
Display aspect ratio : 16:9
Original display aspect rat : 16:9
Frame rate mode : Variable
Frame rate : 25.000 FPS
Minimum frame rate : 8.333 FPS
Maximum frame rate : 25.000 FPS
Color space : YUV
Chroma subsampling : 4:2:0
Bit depth : 8 bits
Scan type : Progressive
Bits/(Pixel*Frame) : 0.092
Stream size : 1.28 GiB (87%)

Audio
ID : 2
Format : AAC LC
Format/Info : Advanced Audio
Codec ID : mp4a-40-2
Duration : 3 h 16 min
Bit rate mode : Constant
Bit rate : 128 kb/s
Channel(s) : 2 channels
Channel layout : L R
Sampling rate : 44.1 kHz
Frame rate : 43.066 FPS (1024 SPF)
Compression mode : Lossy
Stream size : 180 MiB (12%)
Default : Yes
Alternate group : 1

Stardom Tokyo Dream Cinderella 

 

Complete name : 2021.06.12.Stardom.Tokyo.Dream.Cinderella.ENGLISH.Commentary.mp4
Format : MPEG-4
Format profile : Base Media
Codec ID : isom
File size : 5.21 GiB
Duration : 3 h 20 min
Overall bit rate : 3 724 kb/s

Video
ID : 1
Format : AVC
Format/Info : Advanced Video
Duration : 3 h 20 min
Bit rate : 3 520 kb/s
Width : 1 920 pixels
Height : 1 080 pixels
Display aspect ratio : 16:9
Frame rate mode : Variable
Frame rate : 30.000 FPS
Minimum frame rate : 10.000 FPS
Maximum frame rate : 30.303 FPS
Color space : YUV
Chroma subsampling : 4:2:0
Bit depth : 8 bits
Scan type : Progressive
Bits/(Pixel*Frame) : 0.057
Stream size : 4.93 GiB (95%)
Color range : Limited
Color primaries : BT.709
Transfer characteristics : BT.709
Matrix coefficients : BT.709
Codec configuration box : avcC

Stardom Tokyo Dream Cinderella 

Audio
ID : 2
Format : AAC LC
Format/Info : Advanced Audio
Codec ID : mp4a-40-2
Duration : 3 h 20 min
Duration_FirstFrame : -43 ms
Bit rate mode : Constant
Bit rate : 192 kb/s
Channel(s) : 2 channels
Channel layout : L R
Sampling rate : 48.0 kHz
Frame rate : 46.875 FPS (1024 SPF)
Compression mode : Lossy
Stream size : 275 MiB (5%)
Default : Yes
Alternate group : 1

Complete name : 2021.06.12.Stardom.Tokyo.Dream.Cinderella.Special.Edition.(Samurai.TV).mp4
Format : MPEG-4
Format profile : Base Media
Codec ID : isom
File size : 4.31 GiB
Duration : 3 h 16 min
Overall bit rate : 3 135 kb/s

Stardom Tokyo Dream Cinderella 

Video
ID : 1
Format : AVC
Format/Info : Advanced Video
Duration : 3 h 16 min
Bit rate : 2 927 kb/s
Width : 1 280 pixels
Height : 720 pixels
Display aspect ratio : 16:9
Frame rate mode : Constant
Frame rate : 60.000 FPS
Color space : YUV
Chroma subsampling : 4:2:0
Bit depth : 8 bits
Scan type : Progressive
Bits/(Pixel*Frame) : 0.053
Stream size : 4.03 GiB (93%)
Color primaries : BT.709
Transfer characteristics : BT.709
Matrix coefficients : BT.709
Codec configuration box : avcC

Audio
ID : 2
Format : AAC LC
Format/Info : Advanced Audio
Codec ID : mp4a-40-2
Duration : 3 h 16 min
Bit rate mode : Constant
Bit rate : 192 kb/s
Channel(s) : 2 channels
Channel layout : L R
Sampling rate : 48.0 kHz
Frame rate : 46.875 FPS (1024 SPF)
Compression mode : Lossy
Stream size : 270 MiB (6%)
Default : Yes
Alternate group : 1

Stardom Tokyo Dream Cinderella 

Complete name : 2021.06.12.Stardom.Tokyo.Dream.Cinderella.ENG.SD.mp4
Format : MPEG-4
Format profile : Base Media
Codec ID : isom
File size : 1.55 GiB
Duration : 3 h 20 min
Overall bit rate : 1 106 kb/s

Video
ID : 1
Format : AVC
Format/Info : Advanced Video
Duration : 3 h 20 min
Bit rate : 980 kb/s
Width : 850 pixels
Height : 480 pixels
Display aspect ratio : 16:9
Original display aspect rat : 16:9
Frame rate mode : Variable
Frame rate : 25.000 FPS
Minimum frame rate : 8.333 FPS
Maximum frame rate : 25.000 FPS
Color space : YUV
Chroma subsampling : 4:2:0
Bit depth : 8 bits
Scan type : Progressive
Bits/(Pixel*Frame) : 0.096
Stream size : 1.36 GiB (88%)

Stardom Tokyo Dream Cinderella 

Audio
ID : 2
Format : AAC LC
Format/Info : Advanced Audio
Codec ID : mp4a-40-2
Duration : 3 h 20 min
Bit rate mode : Constant
Bit rate : 128 kb/s
Channel(s) : 2 channels
Channel layout : L R
Sampling rate : 44.1 kHz
Frame rate : 43.066 FPS
Compression mode : Lossy
Stream size : 184 MiB (12%)
Default : Yes
Alternate group : 1

Complete name : 2021.06.12.Stardom.Tokyo.Dream.Cinderella.JAP.SD.mp4
Format : MPEG-4
Format profile : Base Media
Codec ID : isom
File size : 1.47 GiB
Duration : 3 h 16 min
Overall bit rate : 1 069 kb/s

Stardom Tokyo Dream Cinderella 

Video
ID : 1
Format : AVC
Format/Info : Advanced Video
Duration : 3 h 16 min
Bit rate : 935 kb/s
Width : 850 pixels
Height : 480 pixels
Display aspect ratio : 16:9
Original display aspect rat : 16:9
Frame rate mode : Variable
Frame rate : 25.000 FPS
Minimum frame rate : 8.333 FPS
Maximum frame rate : 25.000 FPS
Color space : YUV
Chroma subsampling : 4:2:0
Bit depth : 8 bits
Scan type : Progressive
Bits/(Pixel*Frame) : 0.092
Stream size : 1.28 GiB (87%)

Audio
ID : 2
Format : AAC LC
Format/Info : Advanced Audio
Codec ID : mp4a-40-2
Duration : 3 h 16 min
Bit rate mode : Constant
Bit rate : 128 kb/s
Channel(s) : 2 channels
Channel layout : L R
Sampling rate : 44.1 kHz
Frame rate : 43.066 FPS (1024 SPF)
Compression mode : Lossy
Stream size : 180 MiB (12%)
Default : Yes
Alternate group : 1

Stardom Tokyo Dream Cinderella 

 

Complete name : 2021.06.12.Stardom.Tokyo.Dream.Cinderella.ENGLISH.Commentary.mp4
Format : MPEG-4
Format profile : Base Media
Codec ID : isom
File size : 5.21 GiB
Duration : 3 h 20 min
Overall bit rate : 3 724 kb/s

Video
ID : 1
Format : AVC
Format/Info : Advanced Video
Duration : 3 h 20 min
Bit rate : 3 520 kb/s
Width : 1 920 pixels
Height : 1 080 pixels
Display aspect ratio : 16:9
Frame rate mode : Variable
Frame rate : 30.000 FPS
Minimum frame rate : 10.000 FPS
Maximum frame rate : 30.303 FPS
Color space : YUV
Chroma subsampling : 4:2:0
Bit depth : 8 bits
Scan type : Progressive
Bits/(Pixel*Frame) : 0.057
Stream size : 4.93 GiB (95%)
Color range : Limited
Color primaries : BT.709
Transfer characteristics : BT.709
Matrix coefficients : BT.709
Codec configuration box : avcC

Stardom Tokyo Dream Cinderella 

Audio
ID : 2
Format : AAC LC
Format/Info : Advanced Audio
Codec ID : mp4a-40-2
Duration : 3 h 20 min
Duration_FirstFrame : -43 ms
Bit rate mode : Constant
Bit rate : 192 kb/s
Channel(s) : 2 channels
Channel layout : L R
Sampling rate : 48.0 kHz
Frame rate : 46.875 FPS (1024 SPF)
Compression mode : Lossy
Stream size : 275 MiB (5%)
Default : Yes
Alternate group : 1

Complete name : 2021.06.12.Stardom.Tokyo.Dream.Cinderella.Special.Edition.(Samurai.TV).mp4
Format : MPEG-4
Format profile : Base Media
Codec ID : isom
File size : 4.31 GiB
Duration : 3 h 16 min
Overall bit rate : 3 135 kb/s

Stardom Tokyo Dream Cinderella 

Video
ID : 1
Format : AVC
Format/Info : Advanced Video
Duration : 3 h 16 min
Bit rate : 2 927 kb/s
Width : 1 280 pixels
Height : 720 pixels
Display aspect ratio : 16:9
Frame rate mode : Constant
Frame rate : 60.000 FPS
Color space : YUV
Chroma subsampling : 4:2:0
Bit depth : 8 bits
Scan type : Progressive
Bits/(Pixel*Frame) : 0.053
Stream size : 4.03 GiB (93%)
Color primaries : BT.709
Transfer characteristics : BT.709
Matrix coefficients : BT.709
Codec configuration box : avcC

Audio
ID : 2
Format : AAC LC
Format/Info : Advanced Audio
Codec ID : mp4a-40-2
Duration : 3 h 16 min
Bit rate mode : Constant
Bit rate : 192 kb/s
Channel(s) : 2 channels
Channel layout : L R
Sampling rate : 48.0 kHz
Frame rate : 46.875 FPS (1024 SPF)
Compression mode : Lossy
Stream size : 270 MiB (6%)
Default : Yes
Alternate group : 1

Stardom Tokyo Dream Cinderella 

Complete name : 2021.06.12.Stardom.Tokyo.Dream.Cinderella.ENG.SD.mp4
Format : MPEG-4
Format profile : Base Media
Codec ID : isom
File size : 1.55 GiB
Duration : 3 h 20 min
Overall bit rate : 1 106 kb/s

Video
ID : 1
Format : AVC
Format/Info : Advanced Video
Duration : 3 h 20 min
Bit rate : 980 kb/s
Width : 850 pixels
Height : 480 pixels
Display aspect ratio : 16:9
Original display aspect rat : 16:9
Frame rate mode : Variable
Frame rate : 25.000 FPS
Minimum frame rate : 8.333 FPS
Maximum frame rate : 25.000 FPS
Color space : YUV
Chroma subsampling : 4:2:0
Bit depth : 8 bits
Scan type : Progressive
Bits/(Pixel*Frame) : 0.096
Stream size : 1.36 GiB (88%)

Stardom Tokyo Dream Cinderella 

Audio
ID : 2
Format : AAC LC
Format/Info : Advanced Audio
Codec ID : mp4a-40-2
Duration : 3 h 20 min
Bit rate mode : Constant
Bit rate : 128 kb/s
Channel(s) : 2 channels
Channel layout : L R
Sampling rate : 44.1 kHz
Frame rate : 43.066 FPS
Compression mode : Lossy
Stream size : 184 MiB (12%)
Default : Yes
Alternate group : 1

Complete name : 2021.06.12.Stardom.Tokyo.Dream.Cinderella.JAP.SD.mp4
Format : MPEG-4
Format profile : Base Media
Codec ID : isom
File size : 1.47 GiB
Duration : 3 h 16 min
Overall bit rate : 1 069 kb/s

Stardom Tokyo Dream Cinderella 

Video
ID : 1
Format : AVC
Format/Info : Advanced Video
Duration : 3 h 16 min
Bit rate : 935 kb/s
Width : 850 pixels
Height : 480 pixels
Display aspect ratio : 16:9
Original display aspect rat : 16:9
Frame rate mode : Variable
Frame rate : 25.000 FPS
Minimum frame rate : 8.333 FPS
Maximum frame rate : 25.000 FPS
Color space : YUV
Chroma subsampling : 4:2:0
Bit depth : 8 bits
Scan type : Progressive
Bits/(Pixel*Frame) : 0.092
Stream size : 1.28 GiB (87%)

Audio
ID : 2
Format : AAC LC
Format/Info : Advanced Audio
Codec ID : mp4a-40-2
Duration : 3 h 16 min
Bit rate mode : Constant
Bit rate : 128 kb/s
Channel(s) : 2 channels
Channel layout : L R
Sampling rate : 44.1 kHz
Frame rate : 43.066 FPS (1024 SPF)
Compression mode : Lossy
Stream size : 180 MiB (12%)
Default : Yes
Alternate group : 1

Stardom Tokyo Dream Cinderella 

 

Complete name : 2021.06.12.Stardom.Tokyo.Dream.Cinderella.ENGLISH.Commentary.mp4
Format : MPEG-4
Format profile : Base Media
Codec ID : isom
File size : 5.21 GiB
Duration : 3 h 20 min
Overall bit rate : 3 724 kb/s

Video
ID : 1
Format : AVC
Format/Info : Advanced Video
Duration : 3 h 20 min
Bit rate : 3 520 kb/s
Width : 1 920 pixels
Height : 1 080 pixels
Display aspect ratio : 16:9
Frame rate mode : Variable
Frame rate : 30.000 FPS
Minimum frame rate : 10.000 FPS
Maximum frame rate : 30.303 FPS
Color space : YUV
Chroma subsampling : 4:2:0
Bit depth : 8 bits
Scan type : Progressive
Bits/(Pixel*Frame) : 0.057
Stream size : 4.93 GiB (95%)
Color range : Limited
Color primaries : BT.709
Transfer characteristics : BT.709
Matrix coefficients : BT.709
Codec configuration box : avcC

Stardom Tokyo Dream Cinderella 

Audio
ID : 2
Format : AAC LC
Format/Info : Advanced Audio
Codec ID : mp4a-40-2
Duration : 3 h 20 min
Duration_FirstFrame : -43 ms
Bit rate mode : Constant
Bit rate : 192 kb/s
Channel(s) : 2 channels
Channel layout : L R
Sampling rate : 48.0 kHz
Frame rate : 46.875 FPS (1024 SPF)
Compression mode : Lossy
Stream size : 275 MiB (5%)
Default : Yes
Alternate group : 1

Complete name : 2021.06.12.Stardom.Tokyo.Dream.Cinderella.Special.Edition.(Samurai.TV).mp4
Format : MPEG-4
Format profile : Base Media
Codec ID : isom
File size : 4.31 GiB
Duration : 3 h 16 min
Overall bit rate : 3 135 kb/s

Stardom Tokyo Dream Cinderella 

Video
ID : 1
Format : AVC
Format/Info : Advanced Video
Duration : 3 h 16 min
Bit rate : 2 927 kb/s
Width : 1 280 pixels
Height : 720 pixels
Display aspect ratio : 16:9
Frame rate mode : Constant
Frame rate : 60.000 FPS
Color space : YUV
Chroma subsampling : 4:2:0
Bit depth : 8 bits
Scan type : Progressive
Bits/(Pixel*Frame) : 0.053
Stream size : 4.03 GiB (93%)
Color primaries : BT.709
Transfer characteristics : BT.709
Matrix coefficients : BT.709
Codec configuration box : avcC

Audio
ID : 2
Format : AAC LC
Format/Info : Advanced Audio
Codec ID : mp4a-40-2
Duration : 3 h 16 min
Bit rate mode : Constant
Bit rate : 192 kb/s
Channel(s) : 2 channels
Channel layout : L R
Sampling rate : 48.0 kHz
Frame rate : 46.875 FPS (1024 SPF)
Compression mode : Lossy
Stream size : 270 MiB (6%)
Default : Yes
Alternate group : 1

Stardom Tokyo Dream Cinderella 

Complete name : 2021.06.12.Stardom.Tokyo.Dream.Cinderella.ENG.SD.mp4
Format : MPEG-4
Format profile : Base Media
Codec ID : isom
File size : 1.55 GiB
Duration : 3 h 20 min
Overall bit rate : 1 106 kb/s

Video
ID : 1
Format : AVC
Format/Info : Advanced Video
Duration : 3 h 20 min
Bit rate : 980 kb/s
Width : 850 pixels
Height : 480 pixels
Display aspect ratio : 16:9
Original display aspect rat : 16:9
Frame rate mode : Variable
Frame rate : 25.000 FPS
Minimum frame rate : 8.333 FPS
Maximum frame rate : 25.000 FPS
Color space : YUV
Chroma subsampling : 4:2:0
Bit depth : 8 bits
Scan type : Progressive
Bits/(Pixel*Frame) : 0.096
Stream size : 1.36 GiB (88%)

Stardom Tokyo Dream Cinderella 

Audio
ID : 2
Format : AAC LC
Format/Info : Advanced Audio
Codec ID : mp4a-40-2
Duration : 3 h 20 min
Bit rate mode : Constant
Bit rate : 128 kb/s
Channel(s) : 2 channels
Channel layout : L R
Sampling rate : 44.1 kHz
Frame rate : 43.066 FPS
Compression mode : Lossy
Stream size : 184 MiB (12%)
Default : Yes
Alternate group : 1

Complete name : 2021.06.12.Stardom.Tokyo.Dream.Cinderella.JAP.SD.mp4
Format : MPEG-4
Format profile : Base Media
Codec ID : isom
File size : 1.47 GiB
Duration : 3 h 16 min
Overall bit rate : 1 069 kb/s

Stardom Tokyo Dream Cinderella 

Video
ID : 1
Format : AVC
Format/Info : Advanced Video
Duration : 3 h 16 min
Bit rate : 935 kb/s
Width : 850 pixels
Height : 480 pixels
Display aspect ratio : 16:9
Original display aspect rat : 16:9
Frame rate mode : Variable
Frame rate : 25.000 FPS
Minimum frame rate : 8.333 FPS
Maximum frame rate : 25.000 FPS
Color space : YUV
Chroma subsampling : 4:2:0
Bit depth : 8 bits
Scan type : Progressive
Bits/(Pixel*Frame) : 0.092
Stream size : 1.28 GiB (87%)

Audio
ID : 2
Format : AAC LC
Format/Info : Advanced Audio
Codec ID : mp4a-40-2
Duration : 3 h 16 min
Bit rate mode : Constant
Bit rate : 128 kb/s
Channel(s) : 2 channels
Channel layout : L R
Sampling rate : 44.1 kHz
Frame rate : 43.066 FPS (1024 SPF)
Compression mode : Lossy
Stream size : 180 MiB (12%)
Default : Yes
Alternate group : 1

Stardom Tokyo Dream Cinderella 

 

Complete name : 2021.06.12.Stardom.Tokyo.Dream.Cinderella.ENGLISH.Commentary.mp4
Format : MPEG-4
Format profile : Base Media
Codec ID : isom
File size : 5.21 GiB
Duration : 3 h 20 min
Overall bit rate : 3 724 kb/s

Video
ID : 1
Format : AVC
Format/Info : Advanced Video
Duration : 3 h 20 min
Bit rate : 3 520 kb/s
Width : 1 920 pixels
Height : 1 080 pixels
Display aspect ratio : 16:9
Frame rate mode : Variable
Frame rate : 30.000 FPS
Minimum frame rate : 10.000 FPS
Maximum frame rate : 30.303 FPS
Color space : YUV
Chroma subsampling : 4:2:0
Bit depth : 8 bits
Scan type : Progressive
Bits/(Pixel*Frame) : 0.057
Stream size : 4.93 GiB (95%)
Color range : Limited
Color primaries : BT.709
Transfer characteristics : BT.709
Matrix coefficients : BT.709
Codec configuration box : avcC

Stardom Tokyo Dream Cinderella 

Audio
ID : 2
Format : AAC LC
Format/Info : Advanced Audio
Codec ID : mp4a-40-2
Duration : 3 h 20 min
Duration_FirstFrame : -43 ms
Bit rate mode : Constant
Bit rate : 192 kb/s
Channel(s) : 2 channels
Channel layout : L R
Sampling rate : 48.0 kHz
Frame rate : 46.875 FPS (1024 SPF)
Compression mode : Lossy
Stream size : 275 MiB (5%)
Default : Yes
Alternate group : 1

Complete name : 2021.06.12.Stardom.Tokyo.Dream.Cinderella.Special.Edition.(Samurai.TV).mp4
Format : MPEG-4
Format profile : Base Media
Codec ID : isom
File size : 4.31 GiB
Duration : 3 h 16 min
Overall bit rate : 3 135 kb/s

Stardom Tokyo Dream Cinderella 

Video
ID : 1
Format : AVC
Format/Info : Advanced Video
Duration : 3 h 16 min
Bit rate : 2 927 kb/s
Width : 1 280 pixels
Height : 720 pixels
Display aspect ratio : 16:9
Frame rate mode : Constant
Frame rate : 60.000 FPS
Color space : YUV
Chroma subsampling : 4:2:0
Bit depth : 8 bits
Scan type : Progressive
Bits/(Pixel*Frame) : 0.053
Stream size : 4.03 GiB (93%)
Color primaries : BT.709
Transfer characteristics : BT.709
Matrix coefficients : BT.709
Codec configuration box : avcC

Audio
ID : 2
Format : AAC LC
Format/Info : Advanced Audio
Codec ID : mp4a-40-2
Duration : 3 h 16 min
Bit rate mode : Constant
Bit rate : 192 kb/s
Channel(s) : 2 channels
Channel layout : L R
Sampling rate : 48.0 kHz
Frame rate : 46.875 FPS (1024 SPF)
Compression mode : Lossy
Stream size : 270 MiB (6%)
Default : Yes
Alternate group : 1

Stardom Tokyo Dream Cinderella 

Complete name : 2021.06.12.Stardom.Tokyo.Dream.Cinderella.ENG.SD.mp4
Format : MPEG-4
Format profile : Base Media
Codec ID : isom
File size : 1.55 GiB
Duration : 3 h 20 min
Overall bit rate : 1 106 kb/s

Video
ID : 1
Format : AVC
Format/Info : Advanced Video
Duration : 3 h 20 min
Bit rate : 980 kb/s
Width : 850 pixels
Height : 480 pixels
Display aspect ratio : 16:9
Original display aspect rat : 16:9
Frame rate mode : Variable
Frame rate : 25.000 FPS
Minimum frame rate : 8.333 FPS
Maximum frame rate : 25.000 FPS
Color space : YUV
Chroma subsampling : 4:2:0
Bit depth : 8 bits
Scan type : Progressive
Bits/(Pixel*Frame) : 0.096
Stream size : 1.36 GiB (88%)

Stardom Tokyo Dream Cinderella 

Audio
ID : 2
Format : AAC LC
Format/Info : Advanced Audio
Codec ID : mp4a-40-2
Duration : 3 h 20 min
Bit rate mode : Constant
Bit rate : 128 kb/s
Channel(s) : 2 channels
Channel layout : L R
Sampling rate : 44.1 kHz
Frame rate : 43.066 FPS
Compression mode : Lossy
Stream size : 184 MiB (12%)
Default : Yes
Alternate group : 1

Complete name : 2021.06.12.Stardom.Tokyo.Dream.Cinderella.JAP.SD.mp4
Format : MPEG-4
Format profile : Base Media
Codec ID : isom
File size : 1.47 GiB
Duration : 3 h 16 min
Overall bit rate : 1 069 kb/s

Stardom Tokyo Dream Cinderella 

Video
ID : 1
Format : AVC
Format/Info : Advanced Video
Duration : 3 h 16 min
Bit rate : 935 kb/s
Width : 850 pixels
Height : 480 pixels
Display aspect ratio : 16:9
Original display aspect rat : 16:9
Frame rate mode : Variable
Frame rate : 25.000 FPS
Minimum frame rate : 8.333 FPS
Maximum frame rate : 25.000 FPS
Color space : YUV
Chroma subsampling : 4:2:0
Bit depth : 8 bits
Scan type : Progressive
Bits/(Pixel*Frame) : 0.092
Stream size : 1.28 GiB (87%)

Audio
ID : 2
Format : AAC LC
Format/Info : Advanced Audio
Codec ID : mp4a-40-2
Duration : 3 h 16 min
Bit rate mode : Constant
Bit rate : 128 kb/s
Channel(s) : 2 channels
Channel layout : L R
Sampling rate : 44.1 kHz
Frame rate : 43.066 FPS (1024 SPF)
Compression mode : Lossy
Stream size : 180 MiB (12%)
Default : Yes
Alternate group : 1

Stardom Tokyo Dream Cinderella 

 

 

 

[collapse]

 

 

https://dx-tv.com/

Leave a Reply

Your email address will not be published. Required fields are marked *

This site uses Akismet to reduce spam. Learn how your comment data is processed.

Previous Post
Stardom Tokyo Dream Cinderella 2021

Stardom Road to Tokyo Dream Cinderella 2021 Free Replay

Next Post
UFC 263

UFC 263 Online Free Replay 720p