Stardom Road To Yokohama Dream Cinderella 2021 1080p

Stardom Road To Yokohama Dream Cinderella 2021 03 26 1080p DX-TV

Stardom Road To Yokohama Dream Cinderella

 Stardom Road To Yokohama Dream Cinderella

 

 

 

Download Links with High Speed


 

Dopapk

 

 

Show Links

 

http://shrt10.com/v3YU9n35

 

[collapse]

 

 

Nitroflare

 

 

Show Links

 

http://shrt10.com/kczcL

 

[collapse]

 

 

Rapidgator

 

 

Show Links

 

http://shrt10.com/qF7v31k9c

 

[collapse]

 

 

Uploaded

 

 

Show Links

 

http://shrt10.com/uf2J1n

 

[collapse]

 

 

Watch online

 

Server 1

 

 

 

 

Stardom Road To Yokohama Dream Cinderella

 

 

 

 

Server-2

 

 

 

 

watch now

 

 

 

|Server-3

 

 

 

 

watch now

 

 

Uploaded By Site DX-TV.com

 

 

Show Info This Show

 

 

Complete name : Stardom.2021.03.26.Road.To.Yokohama.Dream.Cinderella.2021.1080p.WEB.h264-NCMP.mp4
Format : MPEG-4
Format profile : Base Media
Codec ID : isom
File size : 3.52 GiB
Duration : 2 h 16 min
Overall bit rate : 3 699 kb/s

Road To Yokohama Dream Cinderella

Video
ID : 1
Format : AVC
Duration : 2 h 16 min
Bit rate : 3 499 kb/s
Width : 1 920 pixels
Height : 1 080 pixels
Display aspect ratio : 16:9
Frame rate mode : Constant
Frame rate : 29.970 (30000/1001) FPS
Color space : YUV
Chroma subsampling : 4:2:0
Bit depth : 8 bits
Scan type : Progressive
Bits/(Pixel*Frame) : 0.056
Stream size : 3.33 GiB (95%)
Codec configuration box : avc

Road To Yokohama Dream Cinderella

Audio
ID : 2
Format : AAC LC
Format/Info : Advanced Audio
Codec ID : mp4a-40-2
Duration : 2 h 16 min
Bit rate mode : Constant
Bit rate : 192 kb/s
Channel(s) : 2 channels
Channel layout : L R
Sampling rate : 48.0 kHz
Frame rate : 46.875 FPS (1024 SPF)
Compression mode : Lossy
Stream size : 187 MiB (5%)
Default : Yes
Alternate group : 1

Road To Yokohama Dream Cinderella

Audio
ID : 2
Format : AAC LC
Format/Info : Advanced Audio
Codec ID : mp4a-40-2
Duration : 2 h 16 min
Bit rate mode : Constant
Bit rate : 192 kb/s
Channel(s) : 2 channels
Channel layout : L R
Sampling rate : 48.0 kHz
Frame rate : 46.875 FPS (1024 SPF)
Compression mode : Lossy
Stream size : 187 MiB (5%)
Default : Yes
Alternate group : 1

 

Road To Yokohama Dream Cinderella

 

Audio
ID : 2
Format : AAC LC
Format/Info : Advanced Audio
Codec ID : mp4a-40-2
Duration : 2 h 16 min
Bit rate mode : Constant
Bit rate : 192 kb/s
Channel(s) : 2 channels
Channel layout : L R
Sampling rate : 48.0 kHz
Frame rate : 46.875 FPS (1024 SPF)
Compression mode : Lossy
Stream size : 187 MiB (5%)
Default : Yes
Alternate group : 1

 

[collapse]

 

 

https://dx-tv.com/

1 Comment

  1. @snaw90 Submission Underground 21 replay pleae in Mystream and Stream Z links ? Thanks

Comments are closed.