Stardom Road to Tokyo Dream Cinderella 2021 06 08 Tokyo Korakuen Hall Online Free Replay DX-TV

Contents show

Stardom Road to Tokyo Dream Cinderella

 Stardom Road to Tokyo Dream Cinderella 2021

 

 

 

Download Links with premium High Speed


 

Dopapk

 

 

Show Links

 

http://shrt10.com/Mb727U5Gp

 

[collapse]

 

 

Nitroflare

 

 

Show Links

 

http://shrt10.com/roIv0utY

 

[collapse]

 

 

Rapidgator

 

 

Show Links

 

http://shrt10.com/8cTr70ixx

 

[collapse]

 

 

Uploaded

 

 

Show Links

 

http://shrt10.com/0hJ61oC

 

[collapse]

 

 

Watch online

 

Server 1

 

 

 

 

Stardom Road to Tokyo Dream Cinderella

 

 

 

 

Server-2

 

 

 

 

watch now

 

 

 

|Server-4

 

 

 

 

watch now

 

 

Uploaded By Site DX-TV.com

 

 

Show Info This Show

 

Stardom Road to Tokyo Dream Cinderella

Complete name : 2021.06.08.Stardom.Road.to.Tokyo.Dream.Cinderella.2021.Tokyo.Korakuen.Hall.(Samurai.TV).mp4
Format : MPEG-4
Format profile : Base Media
Codec ID : isom
File size : 2.31 GiB
Duration : 1 h 54 min
Overall bit rate : 2 899 kb/s

Video
ID : 1
Format : AVC
Format/Info : Advanced Video
Duration : 1 h 54 min
Bit rate : 2 694 kb/s
Width : 1 280 pixels
Height : 720 pixels
Display aspect ratio : 16:9
Frame rate mode : Constant
Frame rate : 60.000 FPS
Color space : YUV
Chroma subsampling : 4:2:0
Bit depth : 8 bits
Scan type : Progressive
Bits/(Pixel*Frame) : 0.049
Stream size : 2.15 GiB (93%)
Color primaries : BT.709
Transfer characteristics : BT.709
Matrix coefficients : BT.709
Codec configuration box : avcC

Stardom Road to Tokyo Dream Cinderella

Audio
ID : 2
Format : AAC LC
Format/Info : Advanced Audio
Codec ID : mp4a-40-2
Duration : 1 h 54 min
Bit rate mode : Constant
Bit rate : 192 kb/s
Channel(s) : 2 channels
Channel layout : L R
Sampling rate : 48.0 kHz
Frame rate : 46.875 FPS
Compression mode : Lossy
Stream size : 157 MiB (7%)
Default : Yes
Alternate group : 1

Stardom Road to Tokyo Dream Cinderella

 

Complete name : 2021.06.08.Stardom.Road.to.Tokyo.Dream.Cinderella.2021.Tokyo.Korakuen.Hall.(Samurai.TV).mp4
Format : MPEG-4
Format profile : Base Media
Codec ID : isom
File size : 2.31 GiB
Duration : 1 h 54 min
Overall bit rate : 2 899 kb/s

Video
ID : 1
Format : AVC
Format/Info : Advanced Video
Duration : 1 h 54 min
Bit rate : 2 694 kb/s
Width : 1 280 pixels
Height : 720 pixels
Display aspect ratio : 16:9
Frame rate mode : Constant
Frame rate : 60.000 FPS
Color space : YUV
Chroma subsampling : 4:2:0
Bit depth : 8 bits
Scan type : Progressive
Bits/(Pixel*Frame) : 0.049
Stream size : 2.15 GiB (93%)
Color primaries : BT.709
Transfer characteristics : BT.709
Matrix coefficients : BT.709
Codec configuration box : avcC

Stardom Road to Tokyo Dream Cinderella

Audio
ID : 2
Format : AAC LC
Format/Info : Advanced Audio
Codec ID : mp4a-40-2
Duration : 1 h 54 min
Bit rate mode : Constant
Bit rate : 192 kb/s
Channel(s) : 2 channels
Channel layout : L R
Sampling rate : 48.0 kHz
Frame rate : 46.875 FPS
Compression mode : Lossy
Stream size : 157 MiB (7%)
Default : Yes
Alternate group : 1

Stardom Road to Tokyo Dream Cinderella

Complete name : 2021.06.08.Stardom.Road.to.Tokyo.Dream.Cinderella.2021.Tokyo.Korakuen.Hall.(Samurai.TV).mp4
Format : MPEG-4
Format profile : Base Media
Codec ID : isom
File size : 2.31 GiB
Duration : 1 h 54 min
Overall bit rate : 2 899 kb/s

Video
ID : 1
Format : AVC
Format/Info : Advanced Video
Duration : 1 h 54 min
Bit rate : 2 694 kb/s
Width : 1 280 pixels
Height : 720 pixels
Display aspect ratio : 16:9
Frame rate mode : Constant
Frame rate : 60.000 FPS
Color space : YUV
Chroma subsampling : 4:2:0
Bit depth : 8 bits
Scan type : Progressive
Bits/(Pixel*Frame) : 0.049
Stream size : 2.15 GiB (93%)
Color primaries : BT.709
Transfer characteristics : BT.709
Matrix coefficients : BT.709
Codec configuration box : avcC

Stardom Road to Tokyo Dream Cinderella

Audio
ID : 2
Format : AAC LC
Format/Info : Advanced Audio
Codec ID : mp4a-40-2
Duration : 1 h 54 min
Bit rate mode : Constant
Bit rate : 192 kb/s
Channel(s) : 2 channels
Channel layout : L R
Sampling rate : 48.0 kHz
Frame rate : 46.875 FPS
Compression mode : Lossy
Stream size : 157 MiB (7%)
Default : Yes
Alternate group : 1

Stardom Road to Tokyo Dream Cinderella

Complete name : 2021.06.08.Stardom.Road.to.Tokyo.Dream.Cinderella.2021.Tokyo.Korakuen.Hall.(Samurai.TV).mp4
Format : MPEG-4
Format profile : Base Media
Codec ID : isom
File size : 2.31 GiB
Duration : 1 h 54 min
Overall bit rate : 2 899 kb/s

Video
ID : 1
Format : AVC
Format/Info : Advanced Video
Duration : 1 h 54 min
Bit rate : 2 694 kb/s
Width : 1 280 pixels
Height : 720 pixels
Display aspect ratio : 16:9
Frame rate mode : Constant
Frame rate : 60.000 FPS
Color space : YUV
Chroma subsampling : 4:2:0
Bit depth : 8 bits
Scan type : Progressive
Bits/(Pixel*Frame) : 0.049
Stream size : 2.15 GiB (93%)
Color primaries : BT.709
Transfer characteristics : BT.709
Matrix coefficients : BT.709
Codec configuration box : avcC

Stardom Road to Tokyo Dream Cinderella

Audio
ID : 2
Format : AAC LC
Format/Info : Advanced Audio
Codec ID : mp4a-40-2
Duration : 1 h 54 min
Bit rate mode : Constant
Bit rate : 192 kb/s
Channel(s) : 2 channels
Channel layout : L R
Sampling rate : 48.0 kHz
Frame rate : 46.875 FPS
Compression mode : Lossy
Stream size : 157 MiB (7%)
Default : Yes
Alternate group : 1

Stardom Road to Tokyo Dream Cinderella

Complete name : 2021.06.08.Stardom.Road.to.Tokyo.Dream.Cinderella.2021.Tokyo.Korakuen.Hall.(Samurai.TV).mp4
Format : MPEG-4
Format profile : Base Media
Codec ID : isom
File size : 2.31 GiB
Duration : 1 h 54 min
Overall bit rate : 2 899 kb/s

Video
ID : 1
Format : AVC
Format/Info : Advanced Video
Duration : 1 h 54 min
Bit rate : 2 694 kb/s
Width : 1 280 pixels
Height : 720 pixels
Display aspect ratio : 16:9
Frame rate mode : Constant
Frame rate : 60.000 FPS
Color space : YUV
Chroma subsampling : 4:2:0
Bit depth : 8 bits
Scan type : Progressive
Bits/(Pixel*Frame) : 0.049
Stream size : 2.15 GiB (93%)
Color primaries : BT.709
Transfer characteristics : BT.709
Matrix coefficients : BT.709
Codec configuration box : avcC

Stardom Road to Tokyo Dream Cinderella

Audio
ID : 2
Format : AAC LC
Format/Info : Advanced Audio
Codec ID : mp4a-40-2
Duration : 1 h 54 min
Bit rate mode : Constant
Bit rate : 192 kb/s
Channel(s) : 2 channels
Channel layout : L R
Sampling rate : 48.0 kHz
Frame rate : 46.875 FPS
Compression mode : Lossy
Stream size : 157 MiB (7%)
Default : Yes
Alternate group : 1

Stardom Road to Tokyo Dream Cinderella

Complete name : 2021.06.08.Stardom.Road.to.Tokyo.Dream.Cinderella.2021.Tokyo.Korakuen.Hall.(Samurai.TV).mp4
Format : MPEG-4
Format profile : Base Media
Codec ID : isom
File size : 2.31 GiB
Duration : 1 h 54 min
Overall bit rate : 2 899 kb/s

Video
ID : 1
Format : AVC
Format/Info : Advanced Video
Duration : 1 h 54 min
Bit rate : 2 694 kb/s
Width : 1 280 pixels
Height : 720 pixels
Display aspect ratio : 16:9
Frame rate mode : Constant
Frame rate : 60.000 FPS
Color space : YUV
Chroma subsampling : 4:2:0
Bit depth : 8 bits
Scan type : Progressive
Bits/(Pixel*Frame) : 0.049
Stream size : 2.15 GiB (93%)
Color primaries : BT.709
Transfer characteristics : BT.709
Matrix coefficients : BT.709
Codec configuration box : avcC

Stardom Road to Tokyo Dream Cinderella

Audio
ID : 2
Format : AAC LC
Format/Info : Advanced Audio
Codec ID : mp4a-40-2
Duration : 1 h 54 min
Bit rate mode : Constant
Bit rate : 192 kb/s
Channel(s) : 2 channels
Channel layout : L R
Sampling rate : 48.0 kHz
Frame rate : 46.875 FPS
Compression mode : Lossy
Stream size : 157 MiB (7%)
Default : Yes
Alternate group : 1

Stardom Road to Tokyo Dream Cinderella

Complete name : 2021.06.08.Stardom.Road.to.Tokyo.Dream.Cinderella.2021.Tokyo.Korakuen.Hall.(Samurai.TV).mp4
Format : MPEG-4
Format profile : Base Media
Codec ID : isom
File size : 2.31 GiB
Duration : 1 h 54 min
Overall bit rate : 2 899 kb/s

Video
ID : 1
Format : AVC
Format/Info : Advanced Video
Duration : 1 h 54 min
Bit rate : 2 694 kb/s
Width : 1 280 pixels
Height : 720 pixels
Display aspect ratio : 16:9
Frame rate mode : Constant
Frame rate : 60.000 FPS
Color space : YUV
Chroma subsampling : 4:2:0
Bit depth : 8 bits
Scan type : Progressive
Bits/(Pixel*Frame) : 0.049
Stream size : 2.15 GiB (93%)
Color primaries : BT.709
Transfer characteristics : BT.709
Matrix coefficients : BT.709
Codec configuration box : avcC

Stardom Road to Tokyo Dream Cinderella

Audio
ID : 2
Format : AAC LC
Format/Info : Advanced Audio
Codec ID : mp4a-40-2
Duration : 1 h 54 min
Bit rate mode : Constant
Bit rate : 192 kb/s
Channel(s) : 2 channels
Channel layout : L R
Sampling rate : 48.0 kHz
Frame rate : 46.875 FPS
Compression mode : Lossy
Stream size : 157 MiB (7%)
Default : Yes
Alternate group : 1

Stardom Road to Tokyo Dream Cinderella

Complete name : 2021.06.08.Stardom.Road.to.Tokyo.Dream.Cinderella.2021.Tokyo.Korakuen.Hall.(Samurai.TV).mp4
Format : MPEG-4
Format profile : Base Media
Codec ID : isom
File size : 2.31 GiB
Duration : 1 h 54 min
Overall bit rate : 2 899 kb/s

Video
ID : 1
Format : AVC
Format/Info : Advanced Video
Duration : 1 h 54 min
Bit rate : 2 694 kb/s
Width : 1 280 pixels
Height : 720 pixels
Display aspect ratio : 16:9
Frame rate mode : Constant
Frame rate : 60.000 FPS
Color space : YUV
Chroma subsampling : 4:2:0
Bit depth : 8 bits
Scan type : Progressive
Bits/(Pixel*Frame) : 0.049
Stream size : 2.15 GiB (93%)
Color primaries : BT.709
Transfer characteristics : BT.709
Matrix coefficients : BT.709
Codec configuration box : avcC

Stardom Road to Tokyo Dream Cinderella

Audio
ID : 2
Format : AAC LC
Format/Info : Advanced Audio
Codec ID : mp4a-40-2
Duration : 1 h 54 min
Bit rate mode : Constant
Bit rate : 192 kb/s
Channel(s) : 2 channels
Channel layout : L R
Sampling rate : 48.0 kHz
Frame rate : 46.875 FPS
Compression mode : Lossy
Stream size : 157 MiB (7%)
Default : Yes
Alternate group : 1

Stardom Road to Tokyo Dream Cinderella

Complete name : 2021.06.08.Stardom.Road.to.Tokyo.Dream.Cinderella.2021.Tokyo.Korakuen.Hall.(Samurai.TV).mp4
Format : MPEG-4
Format profile : Base Media
Codec ID : isom
File size : 2.31 GiB
Duration : 1 h 54 min
Overall bit rate : 2 899 kb/s

Video
ID : 1
Format : AVC
Format/Info : Advanced Video
Duration : 1 h 54 min
Bit rate : 2 694 kb/s
Width : 1 280 pixels
Height : 720 pixels
Display aspect ratio : 16:9
Frame rate mode : Constant
Frame rate : 60.000 FPS
Color space : YUV
Chroma subsampling : 4:2:0
Bit depth : 8 bits
Scan type : Progressive
Bits/(Pixel*Frame) : 0.049
Stream size : 2.15 GiB (93%)
Color primaries : BT.709
Transfer characteristics : BT.709
Matrix coefficients : BT.709
Codec configuration box : avcC

Stardom Road to Tokyo Dream Cinderella

Audio
ID : 2
Format : AAC LC
Format/Info : Advanced Audio
Codec ID : mp4a-40-2
Duration : 1 h 54 min
Bit rate mode : Constant
Bit rate : 192 kb/s
Channel(s) : 2 channels
Channel layout : L R
Sampling rate : 48.0 kHz
Frame rate : 46.875 FPS
Compression mode : Lossy
Stream size : 157 MiB (7%)
Default : Yes
Alternate group : 1

Stardom Road to Tokyo Dream Cinderella

Complete name : 2021.06.08.Stardom.Road.to.Tokyo.Dream.Cinderella.2021.Tokyo.Korakuen.Hall.(Samurai.TV).mp4
Format : MPEG-4
Format profile : Base Media
Codec ID : isom
File size : 2.31 GiB
Duration : 1 h 54 min
Overall bit rate : 2 899 kb/s

Video
ID : 1
Format : AVC
Format/Info : Advanced Video
Duration : 1 h 54 min
Bit rate : 2 694 kb/s
Width : 1 280 pixels
Height : 720 pixels
Display aspect ratio : 16:9
Frame rate mode : Constant
Frame rate : 60.000 FPS
Color space : YUV
Chroma subsampling : 4:2:0
Bit depth : 8 bits
Scan type : Progressive
Bits/(Pixel*Frame) : 0.049
Stream size : 2.15 GiB (93%)
Color primaries : BT.709
Transfer characteristics : BT.709
Matrix coefficients : BT.709
Codec configuration box : avcC

Stardom Road to Tokyo Dream Cinderella

Audio
ID : 2
Format : AAC LC
Format/Info : Advanced Audio
Codec ID : mp4a-40-2
Duration : 1 h 54 min
Bit rate mode : Constant
Bit rate : 192 kb/s
Channel(s) : 2 channels
Channel layout : L R
Sampling rate : 48.0 kHz
Frame rate : 46.875 FPS
Compression mode : Lossy
Stream size : 157 MiB (7%)
Default : Yes
Alternate group : 1

Stardom Road to Tokyo Dream Cinderella

Complete name : 2021.06.08.Stardom.Road.to.Tokyo.Dream.Cinderella.2021.Tokyo.Korakuen.Hall.(Samurai.TV).mp4
Format : MPEG-4
Format profile : Base Media
Codec ID : isom
File size : 2.31 GiB
Duration : 1 h 54 min
Overall bit rate : 2 899 kb/s

Video
ID : 1
Format : AVC
Format/Info : Advanced Video
Duration : 1 h 54 min
Bit rate : 2 694 kb/s
Width : 1 280 pixels
Height : 720 pixels
Display aspect ratio : 16:9
Frame rate mode : Constant
Frame rate : 60.000 FPS
Color space : YUV
Chroma subsampling : 4:2:0
Bit depth : 8 bits
Scan type : Progressive
Bits/(Pixel*Frame) : 0.049
Stream size : 2.15 GiB (93%)
Color primaries : BT.709
Transfer characteristics : BT.709
Matrix coefficients : BT.709
Codec configuration box : avcC

Stardom Road to Tokyo Dream Cinderella

Audio
ID : 2
Format : AAC LC
Format/Info : Advanced Audio
Codec ID : mp4a-40-2
Duration : 1 h 54 min
Bit rate mode : Constant
Bit rate : 192 kb/s
Channel(s) : 2 channels
Channel layout : L R
Sampling rate : 48.0 kHz
Frame rate : 46.875 FPS
Compression mode : Lossy
Stream size : 157 MiB (7%)
Default : Yes
Alternate group : 1

Stardom Road to Tokyo Dream Cinderella

Complete name : 2021.06.08.Stardom.Road.to.Tokyo.Dream.Cinderella.2021.Tokyo.Korakuen.Hall.(Samurai.TV).mp4
Format : MPEG-4
Format profile : Base Media
Codec ID : isom
File size : 2.31 GiB
Duration : 1 h 54 min
Overall bit rate : 2 899 kb/s

Video
ID : 1
Format : AVC
Format/Info : Advanced Video
Duration : 1 h 54 min
Bit rate : 2 694 kb/s
Width : 1 280 pixels
Height : 720 pixels
Display aspect ratio : 16:9
Frame rate mode : Constant
Frame rate : 60.000 FPS
Color space : YUV
Chroma subsampling : 4:2:0
Bit depth : 8 bits
Scan type : Progressive
Bits/(Pixel*Frame) : 0.049
Stream size : 2.15 GiB (93%)
Color primaries : BT.709
Transfer characteristics : BT.709
Matrix coefficients : BT.709
Codec configuration box : avcC

Stardom Road to Tokyo Dream Cinderella

Audio
ID : 2
Format : AAC LC
Format/Info : Advanced Audio
Codec ID : mp4a-40-2
Duration : 1 h 54 min
Bit rate mode : Constant
Bit rate : 192 kb/s
Channel(s) : 2 channels
Channel layout : L R
Sampling rate : 48.0 kHz
Frame rate : 46.875 FPS
Compression mode : Lossy
Stream size : 157 MiB (7%)
Default : Yes
Alternate group : 1

Stardom Road to Tokyo Dream Cinderella

Complete name : 2021.06.08.Stardom.Road.to.Tokyo.Dream.Cinderella.2021.Tokyo.Korakuen.Hall.(Samurai.TV).mp4
Format : MPEG-4
Format profile : Base Media
Codec ID : isom
File size : 2.31 GiB
Duration : 1 h 54 min
Overall bit rate : 2 899 kb/s

Video
ID : 1
Format : AVC
Format/Info : Advanced Video
Duration : 1 h 54 min
Bit rate : 2 694 kb/s
Width : 1 280 pixels
Height : 720 pixels
Display aspect ratio : 16:9
Frame rate mode : Constant
Frame rate : 60.000 FPS
Color space : YUV
Chroma subsampling : 4:2:0
Bit depth : 8 bits
Scan type : Progressive
Bits/(Pixel*Frame) : 0.049
Stream size : 2.15 GiB (93%)
Color primaries : BT.709
Transfer characteristics : BT.709
Matrix coefficients : BT.709
Codec configuration box : avcC

Stardom Road to Tokyo Dream Cinderella

Audio
ID : 2
Format : AAC LC
Format/Info : Advanced Audio
Codec ID : mp4a-40-2
Duration : 1 h 54 min
Bit rate mode : Constant
Bit rate : 192 kb/s
Channel(s) : 2 channels
Channel layout : L R
Sampling rate : 48.0 kHz
Frame rate : 46.875 FPS
Compression mode : Lossy
Stream size : 157 MiB (7%)
Default : Yes
Alternate group : 1

Stardom Road to Tokyo Dream Cinderella

Complete name : 2021.06.08.Stardom.Road.to.Tokyo.Dream.Cinderella.2021.Tokyo.Korakuen.Hall.(Samurai.TV).mp4
Format : MPEG-4
Format profile : Base Media
Codec ID : isom
File size : 2.31 GiB
Duration : 1 h 54 min
Overall bit rate : 2 899 kb/s

Video
ID : 1
Format : AVC
Format/Info : Advanced Video
Duration : 1 h 54 min
Bit rate : 2 694 kb/s
Width : 1 280 pixels
Height : 720 pixels
Display aspect ratio : 16:9
Frame rate mode : Constant
Frame rate : 60.000 FPS
Color space : YUV
Chroma subsampling : 4:2:0
Bit depth : 8 bits
Scan type : Progressive
Bits/(Pixel*Frame) : 0.049
Stream size : 2.15 GiB (93%)
Color primaries : BT.709
Transfer characteristics : BT.709
Matrix coefficients : BT.709
Codec configuration box : avcC

Stardom Road to Tokyo Dream Cinderella

Audio
ID : 2
Format : AAC LC
Format/Info : Advanced Audio
Codec ID : mp4a-40-2
Duration : 1 h 54 min
Bit rate mode : Constant
Bit rate : 192 kb/s
Channel(s) : 2 channels
Channel layout : L R
Sampling rate : 48.0 kHz
Frame rate : 46.875 FPS
Compression mode : Lossy
Stream size : 157 MiB (7%)
Default : Yes
Alternate group : 1

Stardom Road to Tokyo Dream Cinderella

Complete name : 2021.06.08.Stardom.Road.to.Tokyo.Dream.Cinderella.2021.Tokyo.Korakuen.Hall.(Samurai.TV).mp4
Format : MPEG-4
Format profile : Base Media
Codec ID : isom
File size : 2.31 GiB
Duration : 1 h 54 min
Overall bit rate : 2 899 kb/s

Video
ID : 1
Format : AVC
Format/Info : Advanced Video
Duration : 1 h 54 min
Bit rate : 2 694 kb/s
Width : 1 280 pixels
Height : 720 pixels
Display aspect ratio : 16:9
Frame rate mode : Constant
Frame rate : 60.000 FPS
Color space : YUV
Chroma subsampling : 4:2:0
Bit depth : 8 bits
Scan type : Progressive
Bits/(Pixel*Frame) : 0.049
Stream size : 2.15 GiB (93%)
Color primaries : BT.709
Transfer characteristics : BT.709
Matrix coefficients : BT.709
Codec configuration box : avcC

Stardom Road to Tokyo Dream Cinderella

Audio
ID : 2
Format : AAC LC
Format/Info : Advanced Audio
Codec ID : mp4a-40-2
Duration : 1 h 54 min
Bit rate mode : Constant
Bit rate : 192 kb/s
Channel(s) : 2 channels
Channel layout : L R
Sampling rate : 48.0 kHz
Frame rate : 46.875 FPS
Compression mode : Lossy
Stream size : 157 MiB (7%)
Default : Yes
Alternate group : 1

Stardom Road to Tokyo Dream Cinderella

Complete name : 2021.06.08.Stardom.Road.to.Tokyo.Dream.Cinderella.2021.Tokyo.Korakuen.Hall.(Samurai.TV).mp4
Format : MPEG-4
Format profile : Base Media
Codec ID : isom
File size : 2.31 GiB
Duration : 1 h 54 min
Overall bit rate : 2 899 kb/s

Video
ID : 1
Format : AVC
Format/Info : Advanced Video
Duration : 1 h 54 min
Bit rate : 2 694 kb/s
Width : 1 280 pixels
Height : 720 pixels
Display aspect ratio : 16:9
Frame rate mode : Constant
Frame rate : 60.000 FPS
Color space : YUV
Chroma subsampling : 4:2:0
Bit depth : 8 bits
Scan type : Progressive
Bits/(Pixel*Frame) : 0.049
Stream size : 2.15 GiB (93%)
Color primaries : BT.709
Transfer characteristics : BT.709
Matrix coefficients : BT.709
Codec configuration box : avcC

Stardom Road to Tokyo Dream Cinderella

Audio
ID : 2
Format : AAC LC
Format/Info : Advanced Audio
Codec ID : mp4a-40-2
Duration : 1 h 54 min
Bit rate mode : Constant
Bit rate : 192 kb/s
Channel(s) : 2 channels
Channel layout : L R
Sampling rate : 48.0 kHz
Frame rate : 46.875 FPS
Compression mode : Lossy
Stream size : 157 MiB (7%)
Default : Yes
Alternate group : 1

Stardom Road to Tokyo Dream Cinderella

Complete name : 2021.06.08.Stardom.Road.to.Tokyo.Dream.Cinderella.2021.Tokyo.Korakuen.Hall.(Samurai.TV).mp4
Format : MPEG-4
Format profile : Base Media
Codec ID : isom
File size : 2.31 GiB
Duration : 1 h 54 min
Overall bit rate : 2 899 kb/s

Video
ID : 1
Format : AVC
Format/Info : Advanced Video
Duration : 1 h 54 min
Bit rate : 2 694 kb/s
Width : 1 280 pixels
Height : 720 pixels
Display aspect ratio : 16:9
Frame rate mode : Constant
Frame rate : 60.000 FPS
Color space : YUV
Chroma subsampling : 4:2:0
Bit depth : 8 bits
Scan type : Progressive
Bits/(Pixel*Frame) : 0.049
Stream size : 2.15 GiB (93%)
Color primaries : BT.709
Transfer characteristics : BT.709
Matrix coefficients : BT.709
Codec configuration box : avcC

Stardom Road to Tokyo Dream Cinderella

Audio
ID : 2
Format : AAC LC
Format/Info : Advanced Audio
Codec ID : mp4a-40-2
Duration : 1 h 54 min
Bit rate mode : Constant
Bit rate : 192 kb/s
Channel(s) : 2 channels
Channel layout : L R
Sampling rate : 48.0 kHz
Frame rate : 46.875 FPS
Compression mode : Lossy
Stream size : 157 MiB (7%)
Default : Yes
Alternate group : 1

Stardom Road to Tokyo Dream Cinderella

Complete name : 2021.06.08.Stardom.Road.to.Tokyo.Dream.Cinderella.2021.Tokyo.Korakuen.Hall.(Samurai.TV).mp4
Format : MPEG-4
Format profile : Base Media
Codec ID : isom
File size : 2.31 GiB
Duration : 1 h 54 min
Overall bit rate : 2 899 kb/s

Video
ID : 1
Format : AVC
Format/Info : Advanced Video
Duration : 1 h 54 min
Bit rate : 2 694 kb/s
Width : 1 280 pixels
Height : 720 pixels
Display aspect ratio : 16:9
Frame rate mode : Constant
Frame rate : 60.000 FPS
Color space : YUV
Chroma subsampling : 4:2:0
Bit depth : 8 bits
Scan type : Progressive
Bits/(Pixel*Frame) : 0.049
Stream size : 2.15 GiB (93%)
Color primaries : BT.709
Transfer characteristics : BT.709
Matrix coefficients : BT.709
Codec configuration box : avcC

Stardom Road to Tokyo Dream Cinderella

Audio
ID : 2
Format : AAC LC
Format/Info : Advanced Audio
Codec ID : mp4a-40-2
Duration : 1 h 54 min
Bit rate mode : Constant
Bit rate : 192 kb/s
Channel(s) : 2 channels
Channel layout : L R
Sampling rate : 48.0 kHz
Frame rate : 46.875 FPS
Compression mode : Lossy
Stream size : 157 MiB (7%)
Default : Yes
Alternate group : 1

Stardom Road to Tokyo Dream Cinderella

Complete name : 2021.06.08.Stardom.Road.to.Tokyo.Dream.Cinderella.2021.Tokyo.Korakuen.Hall.(Samurai.TV).mp4
Format : MPEG-4
Format profile : Base Media
Codec ID : isom
File size : 2.31 GiB
Duration : 1 h 54 min
Overall bit rate : 2 899 kb/s

Video
ID : 1
Format : AVC
Format/Info : Advanced Video
Duration : 1 h 54 min
Bit rate : 2 694 kb/s
Width : 1 280 pixels
Height : 720 pixels
Display aspect ratio : 16:9
Frame rate mode : Constant
Frame rate : 60.000 FPS
Color space : YUV
Chroma subsampling : 4:2:0
Bit depth : 8 bits
Scan type : Progressive
Bits/(Pixel*Frame) : 0.049
Stream size : 2.15 GiB (93%)
Color primaries : BT.709
Transfer characteristics : BT.709
Matrix coefficients : BT.709
Codec configuration box : avcC

Stardom Road to Tokyo Dream Cinderella

Audio
ID : 2
Format : AAC LC
Format/Info : Advanced Audio
Codec ID : mp4a-40-2
Duration : 1 h 54 min
Bit rate mode : Constant
Bit rate : 192 kb/s
Channel(s) : 2 channels
Channel layout : L R
Sampling rate : 48.0 kHz
Frame rate : 46.875 FPS
Compression mode : Lossy
Stream size : 157 MiB (7%)
Default : Yes
Alternate group : 1

Stardom Road to Tokyo Dream Cinderella

Complete name : 2021.06.08.Stardom.Road.to.Tokyo.Dream.Cinderella.2021.Tokyo.Korakuen.Hall.(Samurai.TV).mp4
Format : MPEG-4
Format profile : Base Media
Codec ID : isom
File size : 2.31 GiB
Duration : 1 h 54 min
Overall bit rate : 2 899 kb/s

Video
ID : 1
Format : AVC
Format/Info : Advanced Video
Duration : 1 h 54 min
Bit rate : 2 694 kb/s
Width : 1 280 pixels
Height : 720 pixels
Display aspect ratio : 16:9
Frame rate mode : Constant
Frame rate : 60.000 FPS
Color space : YUV
Chroma subsampling : 4:2:0
Bit depth : 8 bits
Scan type : Progressive
Bits/(Pixel*Frame) : 0.049
Stream size : 2.15 GiB (93%)
Color primaries : BT.709
Transfer characteristics : BT.709
Matrix coefficients : BT.709
Codec configuration box : avcC

Stardom Road to Tokyo Dream Cinderella

Audio
ID : 2
Format : AAC LC
Format/Info : Advanced Audio
Codec ID : mp4a-40-2
Duration : 1 h 54 min
Bit rate mode : Constant
Bit rate : 192 kb/s
Channel(s) : 2 channels
Channel layout : L R
Sampling rate : 48.0 kHz
Frame rate : 46.875 FPS
Compression mode : Lossy
Stream size : 157 MiB (7%)
Default : Yes
Alternate group : 1

Stardom Road to Tokyo Dream Cinderella

Complete name : 2021.06.08.Stardom.Road.to.Tokyo.Dream.Cinderella.2021.Tokyo.Korakuen.Hall.(Samurai.TV).mp4
Format : MPEG-4
Format profile : Base Media
Codec ID : isom
File size : 2.31 GiB
Duration : 1 h 54 min
Overall bit rate : 2 899 kb/s

Video
ID : 1
Format : AVC
Format/Info : Advanced Video
Duration : 1 h 54 min
Bit rate : 2 694 kb/s
Width : 1 280 pixels
Height : 720 pixels
Display aspect ratio : 16:9
Frame rate mode : Constant
Frame rate : 60.000 FPS
Color space : YUV
Chroma subsampling : 4:2:0
Bit depth : 8 bits
Scan type : Progressive
Bits/(Pixel*Frame) : 0.049
Stream size : 2.15 GiB (93%)
Color primaries : BT.709
Transfer characteristics : BT.709
Matrix coefficients : BT.709
Codec configuration box : avcC

Stardom Road to Tokyo Dream Cinderella

Audio
ID : 2
Format : AAC LC
Format/Info : Advanced Audio
Codec ID : mp4a-40-2
Duration : 1 h 54 min
Bit rate mode : Constant
Bit rate : 192 kb/s
Channel(s) : 2 channels
Channel layout : L R
Sampling rate : 48.0 kHz
Frame rate : 46.875 FPS
Compression mode : Lossy
Stream size : 157 MiB (7%)
Default : Yes
Alternate group : 1

Stardom Road to Tokyo Dream Cinderella

Complete name : 2021.06.08.Stardom.Road.to.Tokyo.Dream.Cinderella.2021.Tokyo.Korakuen.Hall.(Samurai.TV).mp4
Format : MPEG-4
Format profile : Base Media
Codec ID : isom
File size : 2.31 GiB
Duration : 1 h 54 min
Overall bit rate : 2 899 kb/s

Video
ID : 1
Format : AVC
Format/Info : Advanced Video
Duration : 1 h 54 min
Bit rate : 2 694 kb/s
Width : 1 280 pixels
Height : 720 pixels
Display aspect ratio : 16:9
Frame rate mode : Constant
Frame rate : 60.000 FPS
Color space : YUV
Chroma subsampling : 4:2:0
Bit depth : 8 bits
Scan type : Progressive
Bits/(Pixel*Frame) : 0.049
Stream size : 2.15 GiB (93%)
Color primaries : BT.709
Transfer characteristics : BT.709
Matrix coefficients : BT.709
Codec configuration box : avcC

Stardom Road to Tokyo Dream Cinderella

Audio
ID : 2
Format : AAC LC
Format/Info : Advanced Audio
Codec ID : mp4a-40-2
Duration : 1 h 54 min
Bit rate mode : Constant
Bit rate : 192 kb/s
Channel(s) : 2 channels
Channel layout : L R
Sampling rate : 48.0 kHz
Frame rate : 46.875 FPS
Compression mode : Lossy
Stream size : 157 MiB (7%)
Default : Yes
Alternate group : 1

Stardom Road to Tokyo Dream Cinderella

Complete name : 2021.06.08.Stardom.Road.to.Tokyo.Dream.Cinderella.2021.Tokyo.Korakuen.Hall.(Samurai.TV).mp4
Format : MPEG-4
Format profile : Base Media
Codec ID : isom
File size : 2.31 GiB
Duration : 1 h 54 min
Overall bit rate : 2 899 kb/s

Video
ID : 1
Format : AVC
Format/Info : Advanced Video
Duration : 1 h 54 min
Bit rate : 2 694 kb/s
Width : 1 280 pixels
Height : 720 pixels
Display aspect ratio : 16:9
Frame rate mode : Constant
Frame rate : 60.000 FPS
Color space : YUV
Chroma subsampling : 4:2:0
Bit depth : 8 bits
Scan type : Progressive
Bits/(Pixel*Frame) : 0.049
Stream size : 2.15 GiB (93%)
Color primaries : BT.709
Transfer characteristics : BT.709
Matrix coefficients : BT.709
Codec configuration box : avcC

Stardom Road to Tokyo Dream Cinderella

Audio
ID : 2
Format : AAC LC
Format/Info : Advanced Audio
Codec ID : mp4a-40-2
Duration : 1 h 54 min
Bit rate mode : Constant
Bit rate : 192 kb/s
Channel(s) : 2 channels
Channel layout : L R
Sampling rate : 48.0 kHz
Frame rate : 46.875 FPS
Compression mode : Lossy
Stream size : 157 MiB (7%)
Default : Yes
Alternate group : 1

Stardom Road to Tokyo Dream Cinderella

 

 

[collapse]

 

 

https://dx-tv.com/

Leave a Reply

Your email address will not be published. Required fields are marked *

This site uses Akismet to reduce spam. Learn how your comment data is processed.

Previous Post
iMPACT Wrestling Against All Odds 2021

iMPACT Wrestling Against All Odds 2021 Free Replay

Next Post
Stardom Tokyo Dream Cinderella 2021

Stardom Tokyo Dream Cinderella 2021 Online Free