Stardom New Year Stars 2021 02 21 Day 10 1080p DX-TV

Stardom New Year Stars 2021 02 21 Day 10 1080p DX-TV

Stardom New Year Stars

 Stardom New Year Stars

 

 

 

Download Links with High Speed


 

Dopapk

 

 

Show Links

 

http://shrt10.com/5vw2Py37

 

[collapse]

 

 

Nitroflare

 

 

Show Links

 

http://shrt10.com/rIJEp

 

[collapse]

 

 

Rapidgator

 

 

Show Links

 

http://shrt10.com/wy33A

 

[collapse]

 

 

Uploaded

 

 

Show Links

 

http://shrt10.com/l7wJlN5K

 

[collapse]

 

 

Watch online

 

Server 1

 

 

 

 

Stardom New Year Stars

 

 

 

 

Server-2

 

 

 

 

watch now

 

 

Uploaded By Site DX-TV.com

 

 

Show Info This Show

 

 

Complete name : Stardom.2021.02.21.New.Year.Stars.Day.10.1080p.WEB.h264-NCMP.mp4
Format : MPEG-4
Format profile : Base Media
Codec ID : isom
File size : 2.45 GiB
Duration : 1 h 34 min
Overall bit rate : 3 701 kb/s
Writing application : Lavf57.72.101

 New Year Stars

Video
ID : 1
Format : AVC
Duration : 1 h 34 min
Bit rate : 3 501 kb/s
Width : 1 920 pixels
Height : 1 080 pixels
Display aspect ratio : 16:9
Frame rate mode : Constant
Frame rate : 29.970 (30000/1001) FPS
Color space : YUV
Chroma subsampling : 4:2:0
Bit depth : 8 bits
Scan type : Progressive
Bits/(Pixel*Frame) : 0.056
Stream size : 2.32 GiB (95%)
Codec configuration box : avcC

Stardom New Year Stars

Audio
ID : 2
Format : AAC LC
Format/Info : Advanced Audio
Codec ID : mp4a-40-2
Duration : 1 h 34 min
Bit rate mode : Constant
Bit rate : 192 kb/s
Channel(s) : 2 channels
Channel layout : L R
Sampling rate : 48.0 kHz
Frame rate : 46.875 FPS
Compression mode : Lossy
Stream size : 130 MiB
Default : Yes
Alternate group : 1

 

Audio
ID : 2
Format : AAC LC
Format/Info : Advanced Audio
Codec ID : mp4a-40-2
Duration : 1 h 34 min
Bit rate mode : Constant
Bit rate : 192 kb/s
Channel(s) : 2 channels
Channel layout : L R
Sampling rate : 48.0 kHz
Frame rate : 46.875 FPS
Compression mode : Lossy
Stream size : 130 MiB
Default : Yes
Alternate group : 1

 

Stardom New Year Stars

 

Audio
ID : 2
Format : AAC LC
Format/Info : Advanced Audio
Codec ID : mp4a-40-2
Duration : 1 h 34 min
Bit rate mode : Constant
Bit rate : 192 kb/s
Channel(s) : 2 channels
Channel layout : L R
Sampling rate : 48.0 kHz
Frame rate : 46.875 FPS
Compression mode : Lossy
Stream size : 130 MiB
Default : Yes
Alternate group : 1

 

[collapse]

 

 

https://dx-tv.com/