Stardom New Century 2021 In Shin Kiba 2021 03 13 1080p

Stardom New Century 2021 In Shin Kiba 2021 03 13 1080p DX-TV

Stardom New Century 2021

 Stardom New Century 2021

 

 

 

Download Links with High Speed


Dopapk

 

 

Show Links

 

http://shrt10.com/wScoyc9

 

[collapse]

 

 

Nitroflare

 

 

Show Links

 

http://shrt10.com/TKJeHfw3c

 

[collapse]

 

 

Rapidgator

 

 

Show Links

 

http://shrt10.com/1u6ADn

 

[collapse]

 

 

Uploaded

 

 

Show Links

 

http://shrt10.com/GGmZG4GI

 

[collapse]

 

 

 

 

Uploaded By Site DX-TV.com

 

 

Show Info This Show

 

 

Complete name : Stardom.2021.03.13.New.Century.2021.In.Shin-Kiba.1080p.WEB.h264-NCMP.mp4
Format : MPEG-4
Format profile : Base Media
Codec ID : isom
File size : 745 MiB
Duration : 28 min 9 s
Overall bit rate : 3 699 kb/s

New Century 2021

Video
ID : 1
Format : AVC
Duration : 28 min 9 s
Bit rate : 3 498 kb/s
Width : 1 920 pixels
Height : 1 080 pixels
Display aspect ratio : 16:9
Frame rate mode : Constant
Frame rate : 29.970 (30000/1001) FPS
Color space : YUV
Chroma subsampling : 4:2:0
Bit depth : 8 bits
Scan type : Progressive
Bits/(Pixel*Frame) : 0.056
Stream size : 704 MiB (95%)
Codec configuration box : avcC

Audio
ID : 2
Format : AAC LC
Codec ID : mp4a-40-2
Duration : 28 min 9 s
Bit rate mode : Constant
Bit rate : 192 kb/s
Channel(s) : 2 channels
Channel layout : L R
Sampling rate : 48.0 kHz
Frame rate : 46.875 FPS
Compression mode : Lossy
Stream size : 38.7 MiB
Default : Yes
Alternate group : 1

New Century 2021

General
Complete name : Stardom.2021.03.13.New.Century.2021.In.Shin-Kiba.1080p.WEB.h264-NCMP.mp4
Format : MPEG-4
Format profile : Base Media
File size : 657 MiB
Duration : 24 min 50 s
Overall bit rate : 3 699 kb/s

Video
ID : 1
Format : AVC
Duration : 24 min 50 s
Bit rate : 3 498 kb/s
Width : 1 920 pixels
Height : 1 080 pixels
Display aspect ratio : 16:9
Frame rate mode : Constant
Frame rate : 29.970 (30000/1001) FPS
Color space : YUV
Chroma subsampling : 4:2:0
Bit depth : 8 bits
Scan type : Progressive
Bits/(Pixel*Frame) : 0.056
Stream size : 622 MiB (95%)
Codec configuration box : avcC

New Century 2021

Audio
ID : 2
Format : AAC LC
Codec ID : mp4a-40-2
Duration : 24 min 50 s
Bit rate mode : Constant
Bit rate : 192 kb/s
Channel(s) : 2 channels
Channel layout : L R
Sampling rate : 48.0 kHz
Frame rate : 46.875 FPS
Compression mode : Lossy
Stream size : 34.1 MiB
Default : Yes
Alternate group : 1

 

 

[collapse]

 

 

https://dx-tv.com/