Stardom New Century 2021 03 20 In Yamagata 1080p

Stardom New Century 2021 03 20 In Yamagata 1080p DX-TV

Stardom New Century 2021

 Stardom New Century 2021

 

 

 

Download Links with High Speed


Dopapk

 

 

Show Links

 

http://shrt10.com/MM8E8J

 

[collapse]

 

 

Nitroflare

 

 

Show Links

 

http://shrt10.com/s8csIKO

 

[collapse]

 

 

Rapidgator

 

 

Show Links

 

http://shrt10.com/8QNEb

 

[collapse]

 

 

Uploaded

 

 

Show Links

 

http://shrt10.com/VWTc1Gas

 

[collapse]

 

 

Watch online

 

Server 1

 

 

 

 

watch now

 

 

 

 

Server-2

 

 

 

 

watch now

 

 

 

|Server-3

 

 

 

 

New Century 2021

 

 

Uploaded By Site DX-TV.com

 

 

Show Info This Show

Stardom New Century 2021

 

Complete name : Stardom.2021.03.20.New.Century.2021.In.Yamagata.1080p.WEB.h264-NCMP.mp4
Format : MPEG-4
Format profile : Base Media
Codec ID : isom
File size : 2.59 GiB
Duration : 1 h 43 min
Overall bit rate : 3 574 kb/s

New Century 2021

Video
ID : 1
Format : AVC
Duration : 1 h 43 min
Bit rate : 3 502 kb/s
Width : 1 920 pixels
Height : 1 080 pixels
Display aspect ratio : 16:9
Frame rate mode : Constant
Frame rate : 29.970 (30000/1001) FPS
Color space : YUV
Chroma subsampling : 4:2:0
Bit depth : 8 bits
Scan type : Progressive
Bits/(Pixel*Frame) : 0.056
Stream size : 2.54 GiB
Codec configuration box : avcC

Audio
ID : 2
Format : AAC LC
Format/Info : Advanced Audio
Codec ID : mp4a-40-2
Duration : 1 h 43 min
Bit rate mode : Constant
Bit rate : 64.0 kb/s
Channel(s) : 2 channels
Channel layout : L R
Sampling rate : 48.0 kHz
Frame rate : 46.875 FPS
Compression mode : Lossy
Stream size : 47.6 MiB
Default : Yes
Alternate group : 1

New Century 2021

Audio
ID : 2
Format : AAC LC
Format/Info : Advanced Audio
Codec ID : mp4a-40-2
Duration : 1 h 43 min
Bit rate mode : Constant
Bit rate : 64.0 kb/s
Channel(s) : 2 channels
Channel layout : L R
Sampling rate : 48.0 kHz
Frame rate : 46.875 FPS
Compression mode : Lossy
Stream size : 47.6 MiB
Default : Yes
Alternate group : 1

New Century 2021

Audio
ID : 2
Format : AAC LC
Format/Info : Advanced Audio
Codec ID : mp4a-40-2
Duration : 1 h 43 min
Bit rate mode : Constant
Bit rate : 64.0 kb/s
Channel(s) : 2 channels
Channel layout : L R
Sampling rate : 48.0 kHz
Frame rate : 46.875 FPS
Compression mode : Lossy
Stream size : 47.6 MiB
Default : Yes
Alternate group : 1

 

 

[collapse]

 

 

https://dx-tv.com/