Stardom New Century 2021 03 14 In Shinjuku 1080p

Stardom New Century 2021 03 14 In Shinjuku 1080p DX-TV

Stardom New Century 2021

 Stardom New Century 2021

 

 

 

Download Links with High Speed


 

Dopapk

 

 

Show Links

 

http://shrt10.com/OsMljII8

 

[collapse]

 

 

Nitroflare

 

 

Show Links

 

http://shrt10.com/G1hbKixh

 

[collapse]

 

 

Rapidgator

 

 

Show Links

 

http://shrt10.com/V11MSJrw

 

[collapse]

 

 

Uploaded

 

 

Show Links

 

http://shrt10.com/xmL61h

 

[collapse]

 

 

 

Uploaded By Site DX-TV.com

 

 

Show Info This Show

 

 

Complete name : 02 STARS (Hanan & Saya Iida) vs. Donna del Mondo (Giulia & Syuri).mp4
Format : MPEG-4
Format profile : Base Media
File size : 494 MiB
Duration : 19 min 29 s
Overall bit rate : 3 540 kb/s

Stardom New Century

Video
ID : 1
Format : AVC
Duration : 19 min 29 s
Bit rate : 3 468 kb/s
Width : 1 920 pixels
Height : 1 080 pixels
Display aspect ratio : 16:9
Frame rate mode : Constant
Frame rate : 29.970 (30000/1001) FPS
Color space : YUV
Chroma subsampling : 4:2:0
Bit depth : 8 bits
Scan type : Progressive
Bits/(Pixel*Frame) : 0.056
Stream size : 484 MiB (98%)
Codec configuration box : avcC

Stardom New Century

Audio
ID : 2
Format : AAC LC
Codec ID : mp4a-40-2
Duration : 19 min 29 s
Bit rate mode : Constant
Bit rate : 64.0 kb/s
Channel(s) : 2 channels
Channel layout : L R
Sampling rate : 48.0 kHz
Frame rate : 46.875 FPS (1024 SPF)
Compression mode : Lossy
Stream size : 8.92 MiB (2%)
Default : Yes
Alternate group : 1

Complete name : 05 Natsupoi vs. Tam Nakano vs. Utami Hayashishita.mp4
Format : MPEG-4
File size : 807 MiB
Duration : 30 min 38 s
Overall bit rate : 3 682 kb/s

Video
ID : 1
Format : AVC
Duration : 30 min 38 s
Bit rate : 3 482 kb/s
Width : 1 920 pixels
Height : 1 080 pixels
Display aspect ratio : 16:9
Frame rate mode : Constant
Frame rate : 29.970 (30000/1001) FPS
Color space : YUV
Chroma subsampling : 4:2:0
Bit depth : 8 bits
Scan type : Progressive
Bits/(Pixel*Frame) : 0.056
Stream size : 763 MiB (95%)
Codec configuration box : avc

Stardom New Century

Audio
ID : 2
Format : AAC LC
Codec ID : mp4a-40-2
Duration : 30 min 38 s
Bit rate mode : Constant
Bit rate : 192 kb/s
Channel(s) : 2 channels
Channel layout : L R
Sampling rate : 48.0 kHz
Frame rate : 46.875 FPS (1024 SPF)
Compression mode : Lossy
Stream size : 42.1 MiB (5%)
Default : Yes
Alternate group : 1

 

 

[collapse]

 

 

https://dx-tv.com/