Stardom Nagoya Two Days Day 1 2021 02 27 1080p DX-TV

Stardom Nagoya Two Days Day 1 2021 02 27 1080p DX-TV

Stardom Nagoya Two Days

 Stardom Nagoya Two Days

 

 

 

Download Links with High Speed


 

Dopapk

 

 

Show Links

 

http://shrt10.com/YXKpenA7W

 

[collapse]

 

 

Nitroflare

 

 

Show Links

 

http://shrt10.com/OBlzo9A

 

[collapse]

 

 

Rapidgator

 

 

Show Links

 

http://shrt10.com/N97Xlkeny

 

[collapse]

 

 

Uploaded

 

 

Show Links

 

http://shrt10.com/UT6Bp

 

[collapse]

 

 

Watch online

 

Server 1

 

 

 

 

Stardom Nagoya

 

 

 

 

Server-2

 

 

 

 

watch now

 

 

 

|Server-3

 

 

 

 

watch now

 

 

Uploaded By Site DX-TV.com

 

 

Show Info This Show

 

 

Complete name : tardom.2021.02.27.Nagoya.Two.Days.Day.1.1080p.WEB.h264-NCMP.mp4
Format : MPEG-4
Format profile : Base Media
File size : 3.07 GiB
Duration : 2 h 2 min
Overall bit rate : 3 570 kb/s

Video
ID : 1
Format : AVC
Duration : 2 h 2 min
Bit rate : 3 498 kb/s
Width : 1 920 pixels
Height : 1 080 pixels
Display aspect ratio : 16:9
Frame rate mode : Constant
Frame rate : 29.970 (30000/1001) FPS
Color space : YUV
Chroma subsampling : 4:2:0
Bit depth : 8 bits
Scan type : Progressive
Bits/(Pixel*Frame) : 0.056
Stream size : 3.00 GiB (98%)
Codec configuration box : avc

Stardom Nagoya

Audio
ID : 2
Format : AAC LC
Codec ID : mp4a-40-2
Duration : 2 h 2 min
Bit rate mode : Constant
Bit rate : 64.0 kb/s
Channel(s) : 2 channels
Channel layout : L R
Sampling rate : 48.0 kHz
Frame rate : 46.875 FPS (1024 SPF)
Compression mode : Lossy
Stream size : 56.3 MiB (2%)
Default : Yes
Alternate group : 1

Audio
ID : 2
Format : AAC LC
Codec ID : mp4a-40-2
Duration : 2 h 2 min
Bit rate mode : Constant
Bit rate : 64.0 kb/s
Channel(s) : 2 channels
Channel layout : L R
Sampling rate : 48.0 kHz
Frame rate : 46.875 FPS (1024 SPF)
Compression mode : Lossy
Stream size : 56.3 MiB (2%)
Default : Yes
Alternate group : 1

Stardom Nagoya

Audio
ID : 2
Format : AAC LC
Codec ID : mp4a-40-2
Duration : 2 h 2 min
Bit rate mode : Constant
Bit rate : 64.0 kb/s
Channel(s) : 2 channels
Channel layout : L R
Sampling rate : 48.0 kHz
Frame rate : 46.875 FPS (1024 SPF)
Compression mode : Lossy
Stream size : 56.3 MiB (2%)
Default : Yes
Alternate group : 1

Stardom Nagoya

 

[collapse]

 

 

https://dx-tv.com/