Stardom in Osaka 2021 07 10 Online Free Replay

Stardom in Osaka 2021 07 10 Online Free Replay DX-TV

Stardom in Osaka

 Stardom in Osaka

 

 

 

Download Links with premium High Speed


 

Dopapk

 

 

Show Links

 

http://shrt10.com/ehn1Hq

 

[collapse]

 

 

Nitroflare

 

 

Show Links

 

http://shrt10.com/jC9JW

 

[collapse]

 

 

Rapidgator

 

 

Show Links

 

http://shrt10.com/Agduqo

 

[collapse]

 

 

Uploaded

 

 

Show Links

 

http://shrt10.com/ckSutB5

 

[collapse]

 

 

Watch online

 

Server 1

 

 

 

 

Stardom in Osaka

 

 

 

 

Server-2

 

 

 

 

watch now

 

 

 

|Server-3

 

 

 

 

Stardom in Osaka

 

 

Uploaded By Site DX-TV.com

 

 

Show Info This Show

Stardom in Osaka

 

Complete name : 2021.07.10 Stardom in Osaka.mp4
Format : MPEG-4
Format profile : Base Media
Codec ID : isom
File size : 3.07 GiB
Duration : 1 h 59 min
Overall bit rate mode : Variable
Overall bit rate : 3 699 kb/s

Video
ID : 1
Format : AVC
Format/Info : Advanced Video
Duration : 1 h 59 min
Bit rate : 3 502 kb/s
Width : 1 920 pixels
Height : 1 080 pixels
Display aspect ratio : 16:9
Frame rate mode : Constant
Frame rate : 29.970 (30000/1001) FPS
Color space : YUV
Chroma subsampling : 4:2:0
Bit depth : 8 bits
Scan type : Progressive
Bits/(Pixel*Frame) : 0.056
Stream size : 2.91 GiB (95%)
Codec configuration box : avcC

Stardom in Osaka

Audio
ID : 2
Format : AAC LC
Format/Info : Advanced Audio
Codec ID : mp4a-40-2
Duration : 1 h 59 min
Bit rate mode : Variable
Bit rate : 192 kb/s
Maximum bit rate : 204 kb/s
Channel(s) : 2 channels
Channel layout : L R
Sampling rate : 48.0 kHz
Frame rate : 46.875 FPS (1024 SPF)
Compression mode : Lossy
Stream size : 163 MiB (5%)
Default : Yes
Alternate group : 1

Stardom in Osaka

Complete name : 2021.07.10 Stardom in Osaka.mp4
Format : MPEG-4
Format profile : Base Media
Codec ID : isom
File size : 3.07 GiB
Duration : 1 h 59 min
Overall bit rate mode : Variable
Overall bit rate : 3 699 kb/s

Video
ID : 1
Format : AVC
Format/Info : Advanced Video
Duration : 1 h 59 min
Bit rate : 3 502 kb/s
Width : 1 920 pixels
Height : 1 080 pixels
Display aspect ratio : 16:9
Frame rate mode : Constant
Frame rate : 29.970 (30000/1001) FPS
Color space : YUV
Chroma subsampling : 4:2:0
Bit depth : 8 bits
Scan type : Progressive
Bits/(Pixel*Frame) : 0.056
Stream size : 2.91 GiB (95%)
Codec configuration box : avcC

Stardom in Osaka

Audio
ID : 2
Format : AAC LC
Format/Info : Advanced Audio
Codec ID : mp4a-40-2
Duration : 1 h 59 min
Bit rate mode : Variable
Bit rate : 192 kb/s
Maximum bit rate : 204 kb/s
Channel(s) : 2 channels
Channel layout : L R
Sampling rate : 48.0 kHz
Frame rate : 46.875 FPS (1024 SPF)
Compression mode : Lossy
Stream size : 163 MiB (5%)
Default : Yes
Alternate group : 1

Stardom in Osaka

Complete name : 2021.07.10 Stardom in Osaka.mp4
Format : MPEG-4
Format profile : Base Media
Codec ID : isom
File size : 3.07 GiB
Duration : 1 h 59 min
Overall bit rate mode : Variable
Overall bit rate : 3 699 kb/s

Video
ID : 1
Format : AVC
Format/Info : Advanced Video
Duration : 1 h 59 min
Bit rate : 3 502 kb/s
Width : 1 920 pixels
Height : 1 080 pixels
Display aspect ratio : 16:9
Frame rate mode : Constant
Frame rate : 29.970 (30000/1001) FPS
Color space : YUV
Chroma subsampling : 4:2:0
Bit depth : 8 bits
Scan type : Progressive
Bits/(Pixel*Frame) : 0.056
Stream size : 2.91 GiB (95%)
Codec configuration box : avcC

Stardom in Osaka

Audio
ID : 2
Format : AAC LC
Format/Info : Advanced Audio
Codec ID : mp4a-40-2
Duration : 1 h 59 min
Bit rate mode : Variable
Bit rate : 192 kb/s
Maximum bit rate : 204 kb/s
Channel(s) : 2 channels
Channel layout : L R
Sampling rate : 48.0 kHz
Frame rate : 46.875 FPS (1024 SPF)
Compression mode : Lossy
Stream size : 163 MiB (5%)
Default : Yes
Alternate group : 1

Stardom in Osaka

Complete name : 2021.07.10 Stardom in Osaka.mp4
Format : MPEG-4
Format profile : Base Media
Codec ID : isom
File size : 3.07 GiB
Duration : 1 h 59 min
Overall bit rate mode : Variable
Overall bit rate : 3 699 kb/s

Video
ID : 1
Format : AVC
Format/Info : Advanced Video
Duration : 1 h 59 min
Bit rate : 3 502 kb/s
Width : 1 920 pixels
Height : 1 080 pixels
Display aspect ratio : 16:9
Frame rate mode : Constant
Frame rate : 29.970 (30000/1001) FPS
Color space : YUV
Chroma subsampling : 4:2:0
Bit depth : 8 bits
Scan type : Progressive
Bits/(Pixel*Frame) : 0.056
Stream size : 2.91 GiB (95%)
Codec configuration box : avcC

Stardom in Osaka

Audio
ID : 2
Format : AAC LC
Format/Info : Advanced Audio
Codec ID : mp4a-40-2
Duration : 1 h 59 min
Bit rate mode : Variable
Bit rate : 192 kb/s
Maximum bit rate : 204 kb/s
Channel(s) : 2 channels
Channel layout : L R
Sampling rate : 48.0 kHz
Frame rate : 46.875 FPS (1024 SPF)
Compression mode : Lossy
Stream size : 163 MiB (5%)
Default : Yes
Alternate group : 1

Stardom in Osaka

Complete name : 2021.07.10 Stardom in Osaka.mp4
Format : MPEG-4
Format profile : Base Media
Codec ID : isom
File size : 3.07 GiB
Duration : 1 h 59 min
Overall bit rate mode : Variable
Overall bit rate : 3 699 kb/s

Video
ID : 1
Format : AVC
Format/Info : Advanced Video
Duration : 1 h 59 min
Bit rate : 3 502 kb/s
Width : 1 920 pixels
Height : 1 080 pixels
Display aspect ratio : 16:9
Frame rate mode : Constant
Frame rate : 29.970 (30000/1001) FPS
Color space : YUV
Chroma subsampling : 4:2:0
Bit depth : 8 bits
Scan type : Progressive
Bits/(Pixel*Frame) : 0.056
Stream size : 2.91 GiB (95%)
Codec configuration box : avcC

Stardom in Osaka

Audio
ID : 2
Format : AAC LC
Format/Info : Advanced Audio
Codec ID : mp4a-40-2
Duration : 1 h 59 min
Bit rate mode : Variable
Bit rate : 192 kb/s
Maximum bit rate : 204 kb/s
Channel(s) : 2 channels
Channel layout : L R
Sampling rate : 48.0 kHz
Frame rate : 46.875 FPS (1024 SPF)
Compression mode : Lossy
Stream size : 163 MiB (5%)
Default : Yes
Alternate group : 1

Stardom in Osaka

Complete name : 2021.07.10 Stardom in Osaka.mp4
Format : MPEG-4
Format profile : Base Media
Codec ID : isom
File size : 3.07 GiB
Duration : 1 h 59 min
Overall bit rate mode : Variable
Overall bit rate : 3 699 kb/s

Video
ID : 1
Format : AVC
Format/Info : Advanced Video
Duration : 1 h 59 min
Bit rate : 3 502 kb/s
Width : 1 920 pixels
Height : 1 080 pixels
Display aspect ratio : 16:9
Frame rate mode : Constant
Frame rate : 29.970 (30000/1001) FPS
Color space : YUV
Chroma subsampling : 4:2:0
Bit depth : 8 bits
Scan type : Progressive
Bits/(Pixel*Frame) : 0.056
Stream size : 2.91 GiB (95%)
Codec configuration box : avcC

Stardom in Osaka

Audio
ID : 2
Format : AAC LC
Format/Info : Advanced Audio
Codec ID : mp4a-40-2
Duration : 1 h 59 min
Bit rate mode : Variable
Bit rate : 192 kb/s
Maximum bit rate : 204 kb/s
Channel(s) : 2 channels
Channel layout : L R
Sampling rate : 48.0 kHz
Frame rate : 46.875 FPS (1024 SPF)
Compression mode : Lossy
Stream size : 163 MiB (5%)
Default : Yes
Alternate group : 1

Stardom in Osaka

Complete name : 2021.07.10 Stardom in Osaka.mp4
Format : MPEG-4
Format profile : Base Media
Codec ID : isom
File size : 3.07 GiB
Duration : 1 h 59 min
Overall bit rate mode : Variable
Overall bit rate : 3 699 kb/s

Video
ID : 1
Format : AVC
Format/Info : Advanced Video
Duration : 1 h 59 min
Bit rate : 3 502 kb/s
Width : 1 920 pixels
Height : 1 080 pixels
Display aspect ratio : 16:9
Frame rate mode : Constant
Frame rate : 29.970 (30000/1001) FPS
Color space : YUV
Chroma subsampling : 4:2:0
Bit depth : 8 bits
Scan type : Progressive
Bits/(Pixel*Frame) : 0.056
Stream size : 2.91 GiB (95%)
Codec configuration box : avcC

Stardom in Osaka

Audio
ID : 2
Format : AAC LC
Format/Info : Advanced Audio
Codec ID : mp4a-40-2
Duration : 1 h 59 min
Bit rate mode : Variable
Bit rate : 192 kb/s
Maximum bit rate : 204 kb/s
Channel(s) : 2 channels
Channel layout : L R
Sampling rate : 48.0 kHz
Frame rate : 46.875 FPS (1024 SPF)
Compression mode : Lossy
Stream size : 163 MiB (5%)
Default : Yes
Alternate group : 1

Stardom in Osaka

Complete name : 2021.07.10 Stardom in Osaka.mp4
Format : MPEG-4
Format profile : Base Media
Codec ID : isom
File size : 3.07 GiB
Duration : 1 h 59 min
Overall bit rate mode : Variable
Overall bit rate : 3 699 kb/s

Video
ID : 1
Format : AVC
Format/Info : Advanced Video
Duration : 1 h 59 min
Bit rate : 3 502 kb/s
Width : 1 920 pixels
Height : 1 080 pixels
Display aspect ratio : 16:9
Frame rate mode : Constant
Frame rate : 29.970 (30000/1001) FPS
Color space : YUV
Chroma subsampling : 4:2:0
Bit depth : 8 bits
Scan type : Progressive
Bits/(Pixel*Frame) : 0.056
Stream size : 2.91 GiB (95%)
Codec configuration box : avcC

Stardom in Osaka

Audio
ID : 2
Format : AAC LC
Format/Info : Advanced Audio
Codec ID : mp4a-40-2
Duration : 1 h 59 min
Bit rate mode : Variable
Bit rate : 192 kb/s
Maximum bit rate : 204 kb/s
Channel(s) : 2 channels
Channel layout : L R
Sampling rate : 48.0 kHz
Frame rate : 46.875 FPS (1024 SPF)
Compression mode : Lossy
Stream size : 163 MiB (5%)
Default : Yes
Alternate group : 1

Stardom in Osaka

Complete name : 2021.07.10 Stardom in Osaka.mp4
Format : MPEG-4
Format profile : Base Media
Codec ID : isom
File size : 3.07 GiB
Duration : 1 h 59 min
Overall bit rate mode : Variable
Overall bit rate : 3 699 kb/s

Video
ID : 1
Format : AVC
Format/Info : Advanced Video
Duration : 1 h 59 min
Bit rate : 3 502 kb/s
Width : 1 920 pixels
Height : 1 080 pixels
Display aspect ratio : 16:9
Frame rate mode : Constant
Frame rate : 29.970 (30000/1001) FPS
Color space : YUV
Chroma subsampling : 4:2:0
Bit depth : 8 bits
Scan type : Progressive
Bits/(Pixel*Frame) : 0.056
Stream size : 2.91 GiB (95%)
Codec configuration box : avcC

Stardom in Osaka

Audio
ID : 2
Format : AAC LC
Format/Info : Advanced Audio
Codec ID : mp4a-40-2
Duration : 1 h 59 min
Bit rate mode : Variable
Bit rate : 192 kb/s
Maximum bit rate : 204 kb/s
Channel(s) : 2 channels
Channel layout : L R
Sampling rate : 48.0 kHz
Frame rate : 46.875 FPS (1024 SPF)
Compression mode : Lossy
Stream size : 163 MiB (5%)
Default : Yes
Alternate group : 1

Stardom in Osaka

Complete name : 2021.07.10 Stardom in Osaka.mp4
Format : MPEG-4
Format profile : Base Media
Codec ID : isom
File size : 3.07 GiB
Duration : 1 h 59 min
Overall bit rate mode : Variable
Overall bit rate : 3 699 kb/s

Video
ID : 1
Format : AVC
Format/Info : Advanced Video
Duration : 1 h 59 min
Bit rate : 3 502 kb/s
Width : 1 920 pixels
Height : 1 080 pixels
Display aspect ratio : 16:9
Frame rate mode : Constant
Frame rate : 29.970 (30000/1001) FPS
Color space : YUV
Chroma subsampling : 4:2:0
Bit depth : 8 bits
Scan type : Progressive
Bits/(Pixel*Frame) : 0.056
Stream size : 2.91 GiB (95%)
Codec configuration box : avcC

Stardom in Osaka

Audio
ID : 2
Format : AAC LC
Format/Info : Advanced Audio
Codec ID : mp4a-40-2
Duration : 1 h 59 min
Bit rate mode : Variable
Bit rate : 192 kb/s
Maximum bit rate : 204 kb/s
Channel(s) : 2 channels
Channel layout : L R
Sampling rate : 48.0 kHz
Frame rate : 46.875 FPS (1024 SPF)
Compression mode : Lossy
Stream size : 163 MiB (5%)
Default : Yes
Alternate group : 1

Stardom in Osaka

Complete name : 2021.07.10 Stardom in Osaka.mp4
Format : MPEG-4
Format profile : Base Media
Codec ID : isom
File size : 3.07 GiB
Duration : 1 h 59 min
Overall bit rate mode : Variable
Overall bit rate : 3 699 kb/s

Video
ID : 1
Format : AVC
Format/Info : Advanced Video
Duration : 1 h 59 min
Bit rate : 3 502 kb/s
Width : 1 920 pixels
Height : 1 080 pixels
Display aspect ratio : 16:9
Frame rate mode : Constant
Frame rate : 29.970 (30000/1001) FPS
Color space : YUV
Chroma subsampling : 4:2:0
Bit depth : 8 bits
Scan type : Progressive
Bits/(Pixel*Frame) : 0.056
Stream size : 2.91 GiB (95%)
Codec configuration box : avcC

Stardom in Osaka

Audio
ID : 2
Format : AAC LC
Format/Info : Advanced Audio
Codec ID : mp4a-40-2
Duration : 1 h 59 min
Bit rate mode : Variable
Bit rate : 192 kb/s
Maximum bit rate : 204 kb/s
Channel(s) : 2 channels
Channel layout : L R
Sampling rate : 48.0 kHz
Frame rate : 46.875 FPS (1024 SPF)
Compression mode : Lossy
Stream size : 163 MiB (5%)
Default : Yes
Alternate group : 1

Stardom in Osaka

Complete name : 2021.07.10 Stardom in Osaka.mp4
Format : MPEG-4
Format profile : Base Media
Codec ID : isom
File size : 3.07 GiB
Duration : 1 h 59 min
Overall bit rate mode : Variable
Overall bit rate : 3 699 kb/s

Video
ID : 1
Format : AVC
Format/Info : Advanced Video
Duration : 1 h 59 min
Bit rate : 3 502 kb/s
Width : 1 920 pixels
Height : 1 080 pixels
Display aspect ratio : 16:9
Frame rate mode : Constant
Frame rate : 29.970 (30000/1001) FPS
Color space : YUV
Chroma subsampling : 4:2:0
Bit depth : 8 bits
Scan type : Progressive
Bits/(Pixel*Frame) : 0.056
Stream size : 2.91 GiB (95%)
Codec configuration box : avcC

Stardom in Osaka

Audio
ID : 2
Format : AAC LC
Format/Info : Advanced Audio
Codec ID : mp4a-40-2
Duration : 1 h 59 min
Bit rate mode : Variable
Bit rate : 192 kb/s
Maximum bit rate : 204 kb/s
Channel(s) : 2 channels
Channel layout : L R
Sampling rate : 48.0 kHz
Frame rate : 46.875 FPS (1024 SPF)
Compression mode : Lossy
Stream size : 163 MiB (5%)
Default : Yes
Alternate group : 1

Stardom in Osaka

v

Complete name : 2021.07.10 Stardom in Osaka.mp4
Format : MPEG-4
Format profile : Base Media
Codec ID : isom
File size : 3.07 GiB
Duration : 1 h 59 min
Overall bit rate mode : Variable
Overall bit rate : 3 699 kb/s

Video
ID : 1
Format : AVC
Format/Info : Advanced Video
Duration : 1 h 59 min
Bit rate : 3 502 kb/s
Width : 1 920 pixels
Height : 1 080 pixels
Display aspect ratio : 16:9
Frame rate mode : Constant
Frame rate : 29.970 (30000/1001) FPS
Color space : YUV
Chroma subsampling : 4:2:0
Bit depth : 8 bits
Scan type : Progressive
Bits/(Pixel*Frame) : 0.056
Stream size : 2.91 GiB (95%)
Codec configuration box : avcC

Stardom in Osaka

Audio
ID : 2
Format : AAC LC
Format/Info : Advanced Audio
Codec ID : mp4a-40-2
Duration : 1 h 59 min
Bit rate mode : Variable
Bit rate : 192 kb/s
Maximum bit rate : 204 kb/s
Channel(s) : 2 channels
Channel layout : L R
Sampling rate : 48.0 kHz
Frame rate : 46.875 FPS (1024 SPF)
Compression mode : Lossy
Stream size : 163 MiB (5%)
Default : Yes
Alternate group : 1

Stardom in Osaka

Complete name : 2021.07.10 Stardom in Osaka.mp4
Format : MPEG-4
Format profile : Base Media
Codec ID : isom
File size : 3.07 GiB
Duration : 1 h 59 min
Overall bit rate mode : Variable
Overall bit rate : 3 699 kb/s

Video
ID : 1
Format : AVC
Format/Info : Advanced Video
Duration : 1 h 59 min
Bit rate : 3 502 kb/s
Width : 1 920 pixels
Height : 1 080 pixels
Display aspect ratio : 16:9
Frame rate mode : Constant
Frame rate : 29.970 (30000/1001) FPS
Color space : YUV
Chroma subsampling : 4:2:0
Bit depth : 8 bits
Scan type : Progressive
Bits/(Pixel*Frame) : 0.056
Stream size : 2.91 GiB (95%)
Codec configuration box : avcC

Stardom in Osaka

Audio
ID : 2
Format : AAC LC
Format/Info : Advanced Audio
Codec ID : mp4a-40-2
Duration : 1 h 59 min
Bit rate mode : Variable
Bit rate : 192 kb/s
Maximum bit rate : 204 kb/s
Channel(s) : 2 channels
Channel layout : L R
Sampling rate : 48.0 kHz
Frame rate : 46.875 FPS (1024 SPF)
Compression mode : Lossy
Stream size : 163 MiB (5%)
Default : Yes
Alternate group : 1

Stardom in Osaka

Complete name : 2021.07.10 Stardom in Osaka.mp4
Format : MPEG-4
Format profile : Base Media
Codec ID : isom
File size : 3.07 GiB
Duration : 1 h 59 min
Overall bit rate mode : Variable
Overall bit rate : 3 699 kb/s

Video
ID : 1
Format : AVC
Format/Info : Advanced Video
Duration : 1 h 59 min
Bit rate : 3 502 kb/s
Width : 1 920 pixels
Height : 1 080 pixels
Display aspect ratio : 16:9
Frame rate mode : Constant
Frame rate : 29.970 (30000/1001) FPS
Color space : YUV
Chroma subsampling : 4:2:0
Bit depth : 8 bits
Scan type : Progressive
Bits/(Pixel*Frame) : 0.056
Stream size : 2.91 GiB (95%)
Codec configuration box : avcC

Stardom in Osaka

Audio
ID : 2
Format : AAC LC
Format/Info : Advanced Audio
Codec ID : mp4a-40-2
Duration : 1 h 59 min
Bit rate mode : Variable
Bit rate : 192 kb/s
Maximum bit rate : 204 kb/s
Channel(s) : 2 channels
Channel layout : L R
Sampling rate : 48.0 kHz
Frame rate : 46.875 FPS (1024 SPF)
Compression mode : Lossy
Stream size : 163 MiB (5%)
Default : Yes
Alternate group : 1

Stardom in Osaka

Complete name : 2021.07.10 Stardom in Osaka.mp4
Format : MPEG-4
Format profile : Base Media
Codec ID : isom
File size : 3.07 GiB
Duration : 1 h 59 min
Overall bit rate mode : Variable
Overall bit rate : 3 699 kb/s

Video
ID : 1
Format : AVC
Format/Info : Advanced Video
Duration : 1 h 59 min
Bit rate : 3 502 kb/s
Width : 1 920 pixels
Height : 1 080 pixels
Display aspect ratio : 16:9
Frame rate mode : Constant
Frame rate : 29.970 (30000/1001) FPS
Color space : YUV
Chroma subsampling : 4:2:0
Bit depth : 8 bits
Scan type : Progressive
Bits/(Pixel*Frame) : 0.056
Stream size : 2.91 GiB (95%)
Codec configuration box : avcC

Stardom in Osaka

Audio
ID : 2
Format : AAC LC
Format/Info : Advanced Audio
Codec ID : mp4a-40-2
Duration : 1 h 59 min
Bit rate mode : Variable
Bit rate : 192 kb/s
Maximum bit rate : 204 kb/s
Channel(s) : 2 channels
Channel layout : L R
Sampling rate : 48.0 kHz
Frame rate : 46.875 FPS (1024 SPF)
Compression mode : Lossy
Stream size : 163 MiB (5%)
Default : Yes
Alternate group : 1

Stardom in Osaka

Complete name : 2021.07.10 Stardom in Osaka.mp4
Format : MPEG-4
Format profile : Base Media
Codec ID : isom
File size : 3.07 GiB
Duration : 1 h 59 min
Overall bit rate mode : Variable
Overall bit rate : 3 699 kb/s

Video
ID : 1
Format : AVC
Format/Info : Advanced Video
Duration : 1 h 59 min
Bit rate : 3 502 kb/s
Width : 1 920 pixels
Height : 1 080 pixels
Display aspect ratio : 16:9
Frame rate mode : Constant
Frame rate : 29.970 (30000/1001) FPS
Color space : YUV
Chroma subsampling : 4:2:0
Bit depth : 8 bits
Scan type : Progressive
Bits/(Pixel*Frame) : 0.056
Stream size : 2.91 GiB (95%)
Codec configuration box : avcC

Stardom in Osaka

Audio
ID : 2
Format : AAC LC
Format/Info : Advanced Audio
Codec ID : mp4a-40-2
Duration : 1 h 59 min
Bit rate mode : Variable
Bit rate : 192 kb/s
Maximum bit rate : 204 kb/s
Channel(s) : 2 channels
Channel layout : L R
Sampling rate : 48.0 kHz
Frame rate : 46.875 FPS (1024 SPF)
Compression mode : Lossy
Stream size : 163 MiB (5%)
Default : Yes
Alternate group : 1

Stardom in Osaka

Complete name : 2021.07.10 Stardom in Osaka.mp4
Format : MPEG-4
Format profile : Base Media
Codec ID : isom
File size : 3.07 GiB
Duration : 1 h 59 min
Overall bit rate mode : Variable
Overall bit rate : 3 699 kb/s

Video
ID : 1
Format : AVC
Format/Info : Advanced Video
Duration : 1 h 59 min
Bit rate : 3 502 kb/s
Width : 1 920 pixels
Height : 1 080 pixels
Display aspect ratio : 16:9
Frame rate mode : Constant
Frame rate : 29.970 (30000/1001) FPS
Color space : YUV
Chroma subsampling : 4:2:0
Bit depth : 8 bits
Scan type : Progressive
Bits/(Pixel*Frame) : 0.056
Stream size : 2.91 GiB (95%)
Codec configuration box : avcC

Stardom in Osaka

Audio
ID : 2
Format : AAC LC
Format/Info : Advanced Audio
Codec ID : mp4a-40-2
Duration : 1 h 59 min
Bit rate mode : Variable
Bit rate : 192 kb/s
Maximum bit rate : 204 kb/s
Channel(s) : 2 channels
Channel layout : L R
Sampling rate : 48.0 kHz
Frame rate : 46.875 FPS (1024 SPF)
Compression mode : Lossy
Stream size : 163 MiB (5%)
Default : Yes
Alternate group : 1

Stardom in Osaka

Complete name : 2021.07.10 Stardom in Osaka.mp4
Format : MPEG-4
Format profile : Base Media
Codec ID : isom
File size : 3.07 GiB
Duration : 1 h 59 min
Overall bit rate mode : Variable
Overall bit rate : 3 699 kb/s

Video
ID : 1
Format : AVC
Format/Info : Advanced Video
Duration : 1 h 59 min
Bit rate : 3 502 kb/s
Width : 1 920 pixels
Height : 1 080 pixels
Display aspect ratio : 16:9
Frame rate mode : Constant
Frame rate : 29.970 (30000/1001) FPS
Color space : YUV
Chroma subsampling : 4:2:0
Bit depth : 8 bits
Scan type : Progressive
Bits/(Pixel*Frame) : 0.056
Stream size : 2.91 GiB (95%)
Codec configuration box : avcC

Stardom in Osaka

Audio
ID : 2
Format : AAC LC
Format/Info : Advanced Audio
Codec ID : mp4a-40-2
Duration : 1 h 59 min
Bit rate mode : Variable
Bit rate : 192 kb/s
Maximum bit rate : 204 kb/s
Channel(s) : 2 channels
Channel layout : L R
Sampling rate : 48.0 kHz
Frame rate : 46.875 FPS (1024 SPF)
Compression mode : Lossy
Stream size : 163 MiB (5%)
Default : Yes
Alternate group : 1

Stardom in Osaka

Complete name : 2021.07.10 Stardom in Osaka.mp4
Format : MPEG-4
Format profile : Base Media
Codec ID : isom
File size : 3.07 GiB
Duration : 1 h 59 min
Overall bit rate mode : Variable
Overall bit rate : 3 699 kb/s

Video
ID : 1
Format : AVC
Format/Info : Advanced Video
Duration : 1 h 59 min
Bit rate : 3 502 kb/s
Width : 1 920 pixels
Height : 1 080 pixels
Display aspect ratio : 16:9
Frame rate mode : Constant
Frame rate : 29.970 (30000/1001) FPS
Color space : YUV
Chroma subsampling : 4:2:0
Bit depth : 8 bits
Scan type : Progressive
Bits/(Pixel*Frame) : 0.056
Stream size : 2.91 GiB (95%)
Codec configuration box : avcC

Stardom in Osaka

Audio
ID : 2
Format : AAC LC
Format/Info : Advanced Audio
Codec ID : mp4a-40-2
Duration : 1 h 59 min
Bit rate mode : Variable
Bit rate : 192 kb/s
Maximum bit rate : 204 kb/s
Channel(s) : 2 channels
Channel layout : L R
Sampling rate : 48.0 kHz
Frame rate : 46.875 FPS (1024 SPF)
Compression mode : Lossy
Stream size : 163 MiB (5%)
Default : Yes
Alternate group : 1

Stardom in Osaka

Complete name : 2021.07.10 Stardom in Osaka.mp4
Format : MPEG-4
Format profile : Base Media
Codec ID : isom
File size : 3.07 GiB
Duration : 1 h 59 min
Overall bit rate mode : Variable
Overall bit rate : 3 699 kb/s

Video
ID : 1
Format : AVC
Format/Info : Advanced Video
Duration : 1 h 59 min
Bit rate : 3 502 kb/s
Width : 1 920 pixels
Height : 1 080 pixels
Display aspect ratio : 16:9
Frame rate mode : Constant
Frame rate : 29.970 (30000/1001) FPS
Color space : YUV
Chroma subsampling : 4:2:0
Bit depth : 8 bits
Scan type : Progressive
Bits/(Pixel*Frame) : 0.056
Stream size : 2.91 GiB (95%)
Codec configuration box : avcC

Stardom in Osaka

Audio
ID : 2
Format : AAC LC
Format/Info : Advanced Audio
Codec ID : mp4a-40-2
Duration : 1 h 59 min
Bit rate mode : Variable
Bit rate : 192 kb/s
Maximum bit rate : 204 kb/s
Channel(s) : 2 channels
Channel layout : L R
Sampling rate : 48.0 kHz
Frame rate : 46.875 FPS (1024 SPF)
Compression mode : Lossy
Stream size : 163 MiB (5%)
Default : Yes
Alternate group : 1

Stardom in Osaka

Complete name : 2021.07.10 Stardom in Osaka.mp4
Format : MPEG-4
Format profile : Base Media
Codec ID : isom
File size : 3.07 GiB
Duration : 1 h 59 min
Overall bit rate mode : Variable
Overall bit rate : 3 699 kb/s

Video
ID : 1
Format : AVC
Format/Info : Advanced Video
Duration : 1 h 59 min
Bit rate : 3 502 kb/s
Width : 1 920 pixels
Height : 1 080 pixels
Display aspect ratio : 16:9
Frame rate mode : Constant
Frame rate : 29.970 (30000/1001) FPS
Color space : YUV
Chroma subsampling : 4:2:0
Bit depth : 8 bits
Scan type : Progressive
Bits/(Pixel*Frame) : 0.056
Stream size : 2.91 GiB (95%)
Codec configuration box : avcC

Stardom in Osaka

Audio
ID : 2
Format : AAC LC
Format/Info : Advanced Audio
Codec ID : mp4a-40-2
Duration : 1 h 59 min
Bit rate mode : Variable
Bit rate : 192 kb/s
Maximum bit rate : 204 kb/s
Channel(s) : 2 channels
Channel layout : L R
Sampling rate : 48.0 kHz
Frame rate : 46.875 FPS (1024 SPF)
Compression mode : Lossy
Stream size : 163 MiB (5%)
Default : Yes
Alternate group : 1

Stardom in Osaka

Complete name : 2021.07.10 Stardom in Osaka.mp4
Format : MPEG-4
Format profile : Base Media
Codec ID : isom
File size : 3.07 GiB
Duration : 1 h 59 min
Overall bit rate mode : Variable
Overall bit rate : 3 699 kb/s

Video
ID : 1
Format : AVC
Format/Info : Advanced Video
Duration : 1 h 59 min
Bit rate : 3 502 kb/s
Width : 1 920 pixels
Height : 1 080 pixels
Display aspect ratio : 16:9
Frame rate mode : Constant
Frame rate : 29.970 (30000/1001) FPS
Color space : YUV
Chroma subsampling : 4:2:0
Bit depth : 8 bits
Scan type : Progressive
Bits/(Pixel*Frame) : 0.056
Stream size : 2.91 GiB (95%)
Codec configuration box : avcC

Stardom in Osaka

Audio
ID : 2
Format : AAC LC
Format/Info : Advanced Audio
Codec ID : mp4a-40-2
Duration : 1 h 59 min
Bit rate mode : Variable
Bit rate : 192 kb/s
Maximum bit rate : 204 kb/s
Channel(s) : 2 channels
Channel layout : L R
Sampling rate : 48.0 kHz
Frame rate : 46.875 FPS (1024 SPF)
Compression mode : Lossy
Stream size : 163 MiB (5%)
Default : Yes
Alternate group : 1

Stardom in Osaka

 

[collapse]

 

 

https://dx-tv.com/

You May Also Like

Leave a Reply

Your email address will not be published. Required fields are marked *

This site uses Akismet to reduce spam. Learn how your comment data is processed.