Stardom Go To Budokan Valentine Special Day 1 2021 02 13

Stardom Go To Budokan Valentine Special Day 1 2021 02 13 DX-TV

Stardom Go To Budokan Day 1

 Stardom Go To Budokan Day 1

 

 

 

Download Links with High Speed


Dopapk

 

 

Show Links

 

http://shrt10.com/uqEWG9bV

 

[collapse]

 

 

Nitroflare

 

 

Show Links

 

http://shrt10.com/i4xdTsmv

 

[collapse]

 

 

Rapidgator

 

 

Show Links

 

http://shrt10.com/cuqY4gsOD

 

[collapse]

 

 

Uploaded

 

 

Show Links

 

http://shrt10.com/lonUa7

 

[collapse]

 

 

Watch online

 

Server 1

 

 

 

 

watch now

 

 

 

 

Server-2

 

 

 

 

watch now

 

 

Uploaded By Site DX-TV.com

 

 

Show Info This Show

 

 

Complete name : Stardom Go To BUDOKAN! Valentine Special Day 1 13-02-2021.mp4
Format : MPEG-4
Format profile : Base Media
Codec ID : isom
File size : 3.84 GiB
Duration : 2 h 31 min
Overall bit rate : 3 637 kb/s
Writing application : Lavf58.27.103

Stardom Go To Budokan

Video
ID : 1
Format : AVC
Duration : 2 h 31 min
Bit rate : 3 501 kb/s
Width : 1 920 pixels
Height : 1 080 pixels
Display aspect ratio : 16:9
Frame rate mode : Constant
Frame rate : 29.970 (30000/1001) FPS
Color space : YUV
Chroma subsampling : 4:2:0
Bit depth : 8 bits
Scan type : Progressive
Bits/(Pixel*Frame) : 0.056
Stream size : 3.70 GiB (96%)
Codec configuration box : avcC

Audio
ID : 2
Format : AAC LC
Format/Info : Advanced Audio
Codec ID : mp4a-40-2
Duration : 2 h 31 min
Bit rate mode : Constant
Bit rate : 128 kb/s
Channel(s) : 2 channels
Channel layout : L R
Sampling rate : 48.0 kHz
Frame rate : 46.875 FPS (1024 SPF)
Compression mode : Lossy
Stream size : 138 MiB (4%)
Default : Yes
Alternate group : 1

Stardom Go To Budokan

Audio
ID : 2
Format : AAC LC
Format/Info : Advanced Audio
Codec ID : mp4a-40-2
Duration : 2 h 31 min
Bit rate mode : Constant
Bit rate : 128 kb/s
Channel(s) : 2 channels
Channel layout : L R
Sampling rate : 48.0 kHz
Frame rate : 46.875 FPS (1024 SPF)
Compression mode : Lossy
Stream size : 138 MiB (4%)
Default : Yes
Alternate group : 1

Stardom Go To Budokan

Audio
ID : 2
Format : AAC LC
Format/Info : Advanced Audio
Codec ID : mp4a-40-2
Duration : 2 h 31 min
Bit rate mode : Constant
Bit rate : 128 kb/s
Channel(s) : 2 channels
Channel layout : L R
Sampling rate : 48.0 kHz
Frame rate : 46.875 FPS (1024 SPF)
Compression mode : Lossy
Stream size : 138 MiB (4%)
Default : Yes
Alternate group : 1

 

 

 

[collapse]

 

 

https://dx-tv.com/