Stardom Go To Budokan Day 2 Valentine Special 2021 02 14

Stardom Go To Budokan Day 2 Valentine Special 2021 02 14 DX-TV

Stardom Go To Budokan Day 2

 Stardom Go To Budokan Day 2

 

 

 

Download Links with High Speed


 

Dopapk

 

 

Show Links

 

http://shrt10.com/tNyn0

 

[collapse]

 

 

Nitroflare

 

 

Show Links

 

http://shrt10.com/RjXQ9IX

 

[collapse]

 

 

Rapidgator

 

 

Show Links

 

http://shrt10.com/jbIZ0Ag6

 

[collapse]

 

 

Uploaded

 

 

Show Links

 

http://shrt10.com/fEneSY

 

[collapse]

 

 

Watch Go To Budokan Day 2 online

 

Server 1

 

 

 

 

Go To Budokan Day 2

 

 

 

 

Server-2

 

 

 

 

watch now

 

 

Uploaded By Site DX-TV.com

 

 

Show Info This Show

 

 

Complete name : Stardom Go To BUDOKAN! Valentine Special – Day 2 (14-02-2021).mp4
Format : MPEG-4
Format profile : Base Media
Codec ID : isom
File size : 3.60 GiB
Duration : 2 h 21 min
Overall bit rate : 3 639 kb/s
Writing application : Lavf58.27.103

Go To Budokan Day 2

Video
ID : 1
Format : AVC
Duration : 2 h 21 min
Bit rate : 3 502 kb/s
Width : 1 920 pixels
Height : 1 080 pixels
Display aspect ratio : 16:9
Frame rate mode : Constant
Frame rate : 29.970 (30000/1001) FPS
Color space : YUV
Chroma subsampling : 4:2:0
Bit depth : 8 bits
Scan type : Progressive
Bits/(Pixel*Frame) : 0.056
Stream size : 3.46 GiB (96%)
Codec configuration box : avcC

Audio
ID : 2
Format : AAC LC
Codec ID : mp4a-40-2
Duration : 2 h 21 min
Bit rate mode : Constant
Bit rate : 129 kb/s
Channel(s) : 2 channels
Channel layout : L R
Sampling rate : 48.0 kHz
Frame rate : 46.875 FPS (1024 SPF)
Compression mode : Lossy
Stream size : 130 MiB (4%)
Default : Yes
Alternate group : 1

Go To Budokan Day 2

Audio
ID : 2
Format : AAC LC
Codec ID : mp4a-40-2
Duration : 2 h 21 min
Bit rate mode : Constant
Bit rate : 129 kb/s
Channel(s) : 2 channels
Channel layout : L R
Sampling rate : 48.0 kHz
Frame rate : 46.875 FPS (1024 SPF)
Compression mode : Lossy
Stream size : 130 MiB (4%)
Default : Yes
Alternate group : 1

Go To Budokan Day 2

Audio
ID : 2
Format : AAC LC
Codec ID : mp4a-40-2
Duration : 2 h 21 min
Bit rate mode : Constant
Bit rate : 129 kb/s
Channel(s) : 2 channels
Channel layout : L R
Sampling rate : 48.0 kHz
Frame rate : 46.875 FPS (1024 SPF)
Compression mode : Lossy
Stream size : 130 MiB (4%)
Default : Yes
Alternate group : 1

 

 

[collapse]

 

 

https://dx-tv.com/