Stardom Cinderella Tournament 2021 04 10 Day 1

Stardom Cinderella Tournament 2021 04 10 Day 1 DX-TV

Stardom Cinderella Tournament 2021

 Stardom Cinderella Tournament 2021

 

 

 

Download Links with High Speed


Dopapk

 

 

Show Links

 

http://shrt10.com/ARn5jxDf

 

[collapse]

 

 

Nitroflare

 

 

Show Links

 

http://shrt10.com/et9aYSZ

 

[collapse]

 

 

Rapidgator

 

 

Show Links

 

http://shrt10.com/Khz4Ta6Jl

 

[collapse]

 

 

Uploaded

 

 

Show Links

 

http://shrt10.com/C7XOr

 

[collapse]

 

 

Watch online

 

Server 1

 

 

 

 

Stardom Cinderella Tournament

 

 

 

 

Server-2

 

 

 

 

watch now

 

 

 

|Server-3

 

 

 

 

watch now

 

 

Uploaded By Site DX-TV.com

 

 

Show Info This Show

 

 

Complete name : Stardom.2021.04.10.Cinderella.Tournament.Day.1.1080p.WEB.h264-NCMP.mp4
Format : MPEG-4
Format profile : Base Media
Codec ID : isom
File size : 3.44 GiB
Duration : 2 h 17 min
Overall bit rate : 3 574 kb/s

Stardom Cinderella Tournament

Video
ID : 1
Format : AVC
Format/Info : Advanced Video
Duration : 2 h 17 min
Bit rate : 3 501 kb/s
Width : 1 920 pixels
Height : 1 080 pixels
Display aspect ratio : 16:9
Frame rate mode : Constant
Frame rate : 29.970 (30000/1001) FPS
Color space : YUV
Chroma subsampling : 4:2:0
Bit depth : 8 bits
Scan type : Progressive
Bits/(Pixel*Frame) : 0.056
Stream size : 3.37 GiB (98%)
Codec configuration box : avcCsv

Stardom Cinderella Tournament

Audio
ID : 2
Format : AAC LC
Format/Info : Advanced Audio
Codec ID : mp4a-40-2
Duration : 2 h 17 min
Bit rate mode : Constant
Bit rate : 64.0 kb/s
Channel(s) : 2 channels
Channel layout : L R
Sampling rate : 48.0 kHz
Frame rate : 46.875 FPS (1024 SPF)
Compression mode : Lossy
Stream size : 63.0 MiB (2%)
Default : Yes
Alternate group : 1

Stardom Cinderella Tournament

Audio
ID : 2
Format : AAC LC
Format/Info : Advanced Audio
Codec ID : mp4a-40-2
Duration : 2 h 17 min
Bit rate mode : Constant
Bit rate : 64.0 kb/s
Channel(s) : 2 channels
Channel layout : L R
Sampling rate : 48.0 kHz
Frame rate : 46.875 FPS (1024 SPF)
Compression mode : Lossy
Stream size : 63.0 MiB (2%)
Default : Yes
Alternate group : 1

Audio
ID : 2
Format : AAC LC
Format/Info : Advanced Audio
Codec ID : mp4a-40-2
Duration : 2 h 17 min
Bit rate mode : Constant
Bit rate : 64.0 kb/s
Channel(s) : 2 channels
Channel layout : L R
Sampling rate : 48.0 kHz
Frame rate : 46.875 FPS (1024 SPF)
Compression mode : Lossy
Stream size : 63.0 MiB (2%)
Default : Yes
Alternate group : 1

Audio
ID : 2
Format : AAC LC
Format/Info : Advanced Audio
Codec ID : mp4a-40-2
Duration : 2 h 17 min
Bit rate mode : Constant
Bit rate : 64.0 kb/s
Channel(s) : 2 channels
Channel layout : L R
Sampling rate : 48.0 kHz
Frame rate : 46.875 FPS (1024 SPF)
Compression mode : Lossy
Stream size : 63.0 MiB (2%)
Default : Yes
Alternate group : 1

Audio
ID : 2
Format : AAC LC
Format/Info : Advanced Audio
Codec ID : mp4a-40-2
Duration : 2 h 17 min
Bit rate mode : Constant
Bit rate : 64.0 kb/s
Channel(s) : 2 channels
Channel layout : L R
Sampling rate : 48.0 kHz
Frame rate : 46.875 FPS (1024 SPF)
Compression mode : Lossy
Stream size : 63.0 MiB (2%)
Default : Yes
Alternate group : 1

[collapse]

 

 

https://dx-tv.com/