Stardom Cinderella Tour In Matsumoto 2021 04 18

Stardom Cinderella Tour In Matsumoto 2021 04 18 1080p DX-TV

Stardom Cinderella Tour In Matsumoto

 Stardom Cinderella Tour In Matsumoto

 

 

 

Download Links with High Speed


 

Dopapk

 

 

Show Links

 

http://shrt10.com/DFeup

 

[collapse]

 

 

Nitroflare

 

 

Show Links

 

http://shrt10.com/Yh7eV0kJ

 

[collapse]

 

 

Rapidgator

 

 

Show Links

 

http://shrt10.com/iCXpUtMOJ

 

[collapse]

 

 

Uploaded

 

 

Show Links

 

http://shrt10.com/XVc3mou3

 

[collapse]

 

 

Watch online

 

Server 1

 

 

 

 

Stardom Cinderella Tour In Matsumoto

 

 

 

 

Server-2

 

 

 

 

watch now

 

 

 

|Server-3

 

 

 

 

watch now

 

 

Uploaded By Site DX-TV.com

 

 

Show Info This Show

 

 

Complete name : Stardom.2021.04.18.Cinderella.Tour.In.Matsumoto.1080p.WEB.h264-NCMP.mp4
Format : MPEG-4
Format profile : Base Media
Codec ID : isom
File size : 2.38 GiB
Duration : 1 h 35 min
Overall bit rate : 3 574 kb/s

Stardom Cinderella Tour In Matsumoto

Video
ID : 1
Format : AVC
Duration : 1 h 35 min
Bit rate : 3 502 kb/s
Width : 1 920 pixels
Height : 1 080 pixels
Display aspect ratio : 16:9
Frame rate mode : Constant
Frame rate : 29.970 (30000/1001) FPS
Color space : YUV
Chroma subsampling : 4:2:0
Bit depth : 8 bits
Scan type : Progressive
Bits/(Pixel*Frame) : 0.056
Stream size : 2.33 GiB (98%)
Codec configuration box : avcC

Audio
ID : 2
Format : AAC LC
Format/Info : Advanced Audio
Codec ID : mp4a-40-2
Duration : 1 h 35 min
Bit rate mode : Constant
Bit rate : 64.0 kb/s
Channel(s) : 2 channels
Channel layout : L R
Sampling rate : 48.0 kHz
Frame rate : 46.875 FPS (1024 SPF)
Compression mode : Lossy
Stream size : 43.7 MiB (2%)
Default : Yes
Alternate group : 1

Stardom Cinderella

Audio
ID : 2
Format : AAC LC
Format/Info : Advanced Audio
Codec ID : mp4a-40-2
Duration : 1 h 35 min
Bit rate mode : Constant
Bit rate : 64.0 kb/s
Channel(s) : 2 channels
Channel layout : L R
Sampling rate : 48.0 kHz
Frame rate : 46.875 FPS (1024 SPF)
Compression mode : Lossy
Stream size : 43.7 MiB (2%)
Default : Yes
Alternate group : 1

 

 

Audio
ID : 2
Format : AAC LC
Format/Info : Advanced Audio
Codec ID : mp4a-40-2
Duration : 1 h 35 min
Bit rate mode : Constant
Bit rate : 64.0 kb/s
Channel(s) : 2 channels
Channel layout : L R
Sampling rate : 48.0 kHz
Frame rate : 46.875 FPS (1024 SPF)
Compression mode : Lossy
Stream size : 43.7 MiB (2%)
Default : Yes
Alternate group : 1

 

Stardom Cinderella

Audio
ID : 2
Format : AAC LC
Format/Info : Advanced Audio
Codec ID : mp4a-40-2
Duration : 1 h 35 min
Bit rate mode : Constant
Bit rate : 64.0 kb/s
Channel(s) : 2 channels
Channel layout : L R
Sampling rate : 48.0 kHz
Frame rate : 46.875 FPS (1024 SPF)
Compression mode : Lossy
Stream size : 43.7 MiB (2%)
Default : Yes
Alternate group : 1

Audio
ID : 2
Format : AAC LC
Format/Info : Advanced Audio
Codec ID : mp4a-40-2
Duration : 1 h 35 min
Bit rate mode : Constant
Bit rate : 64.0 kb/s
Channel(s) : 2 channels
Channel layout : L R
Sampling rate : 48.0 kHz
Frame rate : 46.875 FPS (1024 SPF)
Compression mode : Lossy
Stream size : 43.7 MiB (2%)
Default : Yes
Alternate group : 1

Stardom Cinderella

[collapse]

 

 

https://dx-tv.com/