Stardom Cinderella Summer 2021 Tour in Tokyo Day 3 Free

Stardom Cinderella Summer 2021 07 25 Tour in Tokyo Day 3 480p /1080p Online Free Replay DX-TV

Contents show

Stardom Cinderella Summer 2021

 Stardom Cinderella Summer 2021

 

 

 

Download Links with premium High Speed


 

Dopapk

 

 

Show Links

 

http://shrt10.com/nK15V
http://shrt10.com/XaWfzQRE

 

[collapse]

 

 

Nitroflare

 

 

Show Links

 

http://shrt10.com/rErlM
http://shrt10.com/FUiw3guqk

 

[collapse]

 

 

Rapidgator

 

 

Show Links

 

http://shrt10.com/3qUfI9
http://shrt10.com/aktSrkj

 

[collapse]

 

 

Uploaded

 

 

Show Links

 

http://shrt10.com/OqXh2JQ
http://shrt10.com/4LnahF

 

[collapse]

 

 

Watch online

 

Server 1

 

 

 

 

Stardom Cinderella Summer 2021

 

 

 

 

Server-2

 

 

 

 

watch now

 

 

 

|Server-3

 

 

 

 

watch now

 

 

Uploaded By Site DX-TV.com

 

 

Show Info This Show

Stardom Cinderella Summer 2021

 

Complete name : Stardom Cinderella Summer Tour In Tokyo 480p (Day 3).mp4
Format : MPEG-4
Format profile : Base Media
Codec ID : mp42 (mp42)
File size : 1.04 GiB
Duration : 1 h 52 min
Overall bit rate : 1 322 kb/s

Video
ID : 1
Format : AVC
Format/Info : Advanced Video
Duration : 1 h 52 min
Bit rate : 1 187 kb/s
Width : 720 pixels
Height : 480 pixels
Display aspect ratio : 3:2
Frame rate mode : Constant
Frame rate : 30.000 FPS
Color space : YUV
Chroma subsampling : 4:2:0
Bit depth : 8 bits
Scan type : Progressive
Bits/(Pixel*Frame) : 0.114
Stream size : 958 MiB (90%)
Language : English
Codec configuration box : avc

Stardom Cinderella Summer 2021

Audio
ID : 2
Format : AAC LC
Format/Info : Advanced Audio
Codec ID : mp4a-40-2
Duration : 1 h 52 min
Source duration : 1 h 52 min
Bit rate mode : Constant
Bit rate : 128 kb/s
Channel(s) : 2 channels
Channel layout : L R
Sampling rate : 44.1 kHz
Frame rate : 43.066 FPS (1024 SPF)
Compression mode : Lossy
Stream size : 103 MiB (10%)
Source stream size : 103 MiB (10%)
Title : Stereo
Language : English
Default : Yes
Alternate group : 1

Complete name : Stardom Cinderella Summer Tour In Tokyo (Day 3).mp4
Format : MPEG-4
Format profile : Base Media
Codec ID : isom
File size : 4.01 GiB
Duration : 1 h 52 min
Overall bit rate mode : Constant
Overall bit rate : 5 082 kb/s

Stardom Cinderella Summer 2021

Video
ID : 1
Format : AVC
Format/Info : Advanced Video
Duration : 1 h 52 min
Bit rate mode : Constant
Bit rate : 4 878 kb/s
Width : 1 920 pixels
Height : 1 080 pixels
Display aspect ratio : 16:9
Frame rate : 29.970 (30000/1001) FPS
Color space : YUV
Chroma subsampling : 4:2:0
Bit depth : 8 bits
Scan type : Progressive
Bits/(Pixel*Frame) : 0.078
Stream size : 3.85 GiB (96%)
Codec configuration box : avc

Stardom Cinderella Summer 2021

Audio
ID : 2
Format : AAC LC
Format/Info : Advanced Audio
Codec ID : mp4a-40-2
Duration : 1 h 52 min
Bit rate mode : Constant
Bit rate : 192 kb/s
Channel(s) : 2 channels
Channel layout : L R
Sampling rate : 44.1 kHz
Frame rate : 43.066 FPS (1024 SPF)
Compression mode : Lossy
Stream size : 157 MiB (4%)
Default : Yes
Alternate group : 1

 

Name of the event: Stardom Cinderella Summer Tour In Tokyo – Tag 3
Date: 25.07.2021
Promotion: World Wonder Ring Stardom
Type: Event
Location: Tokyo, Japan
Arena: Korakuen Hall
Attendance: 642

Stardom Cinderella Summer 2021

:::: Matchguide Rating: 5.10 based on 9 votes. ::::
Tag Team Match
Oedo Tai (Rina & Ruaka) defeat Hanan & Hina (7:39)
:::: Matchguide Rating: 5.56 based on 8 votes. ::::
Three Way Match
Fukigen Death defeats Lady C and Saya Kamitani (6:03)
:::: Matchguide Rating: 6.64 based on 10 votes. ::::
High Speed Match
AZM vs. Koguma – Time Limit Draw (10:00)
:::: Matchguide Rating: 6.85 based on 12 votes. ::::
Six Man Tag Team Match
Maika, Tam Nakano & Utami Hayashishita defeat Konami, Syuri & Unagi Sayaka (20:42)
:::: Matchguide Rating: 7.71 based on 13 votes. ::::
Six Man Tag Team Match
Giulia, Mina Shirakawa & Starlight Kid defeat Mayu Iwatani, Momo Watanabe & Saki Kashima (23:03)

Stardom Cinderella Summer 2021

Complete name : Stardom Cinderella Summer Tour In Tokyo 480p (Day 3).mp4
Format : MPEG-4
Format profile : Base Media
Codec ID : mp42 (mp42)
File size : 1.04 GiB
Duration : 1 h 52 min
Overall bit rate : 1 322 kb/s

Video
ID : 1
Format : AVC
Format/Info : Advanced Video
Duration : 1 h 52 min
Bit rate : 1 187 kb/s
Width : 720 pixels
Height : 480 pixels
Display aspect ratio : 3:2
Frame rate mode : Constant
Frame rate : 30.000 FPS
Color space : YUV
Chroma subsampling : 4:2:0
Bit depth : 8 bits
Scan type : Progressive
Bits/(Pixel*Frame) : 0.114
Stream size : 958 MiB (90%)
Language : English
Codec configuration box : avc

Stardom Cinderella Summer 2021

Audio
ID : 2
Format : AAC LC
Format/Info : Advanced Audio
Codec ID : mp4a-40-2
Duration : 1 h 52 min
Source duration : 1 h 52 min
Bit rate mode : Constant
Bit rate : 128 kb/s
Channel(s) : 2 channels
Channel layout : L R
Sampling rate : 44.1 kHz
Frame rate : 43.066 FPS (1024 SPF)
Compression mode : Lossy
Stream size : 103 MiB (10%)
Source stream size : 103 MiB (10%)
Title : Stereo
Language : English
Default : Yes
Alternate group : 1

Complete name : Stardom Cinderella Summer Tour In Tokyo (Day 3).mp4
Format : MPEG-4
Format profile : Base Media
Codec ID : isom
File size : 4.01 GiB
Duration : 1 h 52 min
Overall bit rate mode : Constant
Overall bit rate : 5 082 kb/s

Stardom Cinderella Summer 2021

Video
ID : 1
Format : AVC
Format/Info : Advanced Video
Duration : 1 h 52 min
Bit rate mode : Constant
Bit rate : 4 878 kb/s
Width : 1 920 pixels
Height : 1 080 pixels
Display aspect ratio : 16:9
Frame rate : 29.970 (30000/1001) FPS
Color space : YUV
Chroma subsampling : 4:2:0
Bit depth : 8 bits
Scan type : Progressive
Bits/(Pixel*Frame) : 0.078
Stream size : 3.85 GiB (96%)
Codec configuration box : avc

Stardom Cinderella Summer 2021

Audio
ID : 2
Format : AAC LC
Format/Info : Advanced Audio
Codec ID : mp4a-40-2
Duration : 1 h 52 min
Bit rate mode : Constant
Bit rate : 192 kb/s
Channel(s) : 2 channels
Channel layout : L R
Sampling rate : 44.1 kHz
Frame rate : 43.066 FPS (1024 SPF)
Compression mode : Lossy
Stream size : 157 MiB (4%)
Default : Yes
Alternate group : 1

 

Name of the event: Stardom Cinderella Summer Tour In Tokyo – Tag 3
Date: 25.07.2021
Promotion: World Wonder Ring Stardom
Type: Event
Location: Tokyo, Japan
Arena: Korakuen Hall
Attendance: 642

Stardom Cinderella Summer 2021

:::: Matchguide Rating: 5.10 based on 9 votes. ::::
Tag Team Match
Oedo Tai (Rina & Ruaka) defeat Hanan & Hina (7:39)
:::: Matchguide Rating: 5.56 based on 8 votes. ::::
Three Way Match
Fukigen Death defeats Lady C and Saya Kamitani (6:03)
:::: Matchguide Rating: 6.64 based on 10 votes. ::::
High Speed Match
AZM vs. Koguma – Time Limit Draw (10:00)
:::: Matchguide Rating: 6.85 based on 12 votes. ::::
Six Man Tag Team Match
Maika, Tam Nakano & Utami Hayashishita defeat Konami, Syuri & Unagi Sayaka (20:42)
:::: Matchguide Rating: 7.71 based on 13 votes. ::::
Six Man Tag Team Match
Giulia, Mina Shirakawa & Starlight Kid defeat Mayu Iwatani, Momo Watanabe & Saki Kashima (23:03)

Stardom Cinderella Summer 2021

Complete name : Stardom Cinderella Summer Tour In Tokyo 480p (Day 3).mp4
Format : MPEG-4
Format profile : Base Media
Codec ID : mp42 (mp42)
File size : 1.04 GiB
Duration : 1 h 52 min
Overall bit rate : 1 322 kb/s

Video
ID : 1
Format : AVC
Format/Info : Advanced Video
Duration : 1 h 52 min
Bit rate : 1 187 kb/s
Width : 720 pixels
Height : 480 pixels
Display aspect ratio : 3:2
Frame rate mode : Constant
Frame rate : 30.000 FPS
Color space : YUV
Chroma subsampling : 4:2:0
Bit depth : 8 bits
Scan type : Progressive
Bits/(Pixel*Frame) : 0.114
Stream size : 958 MiB (90%)
Language : English
Codec configuration box : avc

Stardom Cinderella Summer 2021

Audio
ID : 2
Format : AAC LC
Format/Info : Advanced Audio
Codec ID : mp4a-40-2
Duration : 1 h 52 min
Source duration : 1 h 52 min
Bit rate mode : Constant
Bit rate : 128 kb/s
Channel(s) : 2 channels
Channel layout : L R
Sampling rate : 44.1 kHz
Frame rate : 43.066 FPS (1024 SPF)
Compression mode : Lossy
Stream size : 103 MiB (10%)
Source stream size : 103 MiB (10%)
Title : Stereo
Language : English
Default : Yes
Alternate group : 1

Complete name : Stardom Cinderella Summer Tour In Tokyo (Day 3).mp4
Format : MPEG-4
Format profile : Base Media
Codec ID : isom
File size : 4.01 GiB
Duration : 1 h 52 min
Overall bit rate mode : Constant
Overall bit rate : 5 082 kb/s

Stardom Cinderella Summer 2021

Video
ID : 1
Format : AVC
Format/Info : Advanced Video
Duration : 1 h 52 min
Bit rate mode : Constant
Bit rate : 4 878 kb/s
Width : 1 920 pixels
Height : 1 080 pixels
Display aspect ratio : 16:9
Frame rate : 29.970 (30000/1001) FPS
Color space : YUV
Chroma subsampling : 4:2:0
Bit depth : 8 bits
Scan type : Progressive
Bits/(Pixel*Frame) : 0.078
Stream size : 3.85 GiB (96%)
Codec configuration box : avc

Stardom Cinderella Summer 2021

Audio
ID : 2
Format : AAC LC
Format/Info : Advanced Audio
Codec ID : mp4a-40-2
Duration : 1 h 52 min
Bit rate mode : Constant
Bit rate : 192 kb/s
Channel(s) : 2 channels
Channel layout : L R
Sampling rate : 44.1 kHz
Frame rate : 43.066 FPS (1024 SPF)
Compression mode : Lossy
Stream size : 157 MiB (4%)
Default : Yes
Alternate group : 1

 

Name of the event: Stardom Cinderella Summer Tour In Tokyo – Tag 3
Date: 25.07.2021
Promotion: World Wonder Ring Stardom
Type: Event
Location: Tokyo, Japan
Arena: Korakuen Hall
Attendance: 642

Stardom Cinderella Summer 2021

:::: Matchguide Rating: 5.10 based on 9 votes. ::::
Tag Team Match
Oedo Tai (Rina & Ruaka) defeat Hanan & Hina (7:39)
:::: Matchguide Rating: 5.56 based on 8 votes. ::::
Three Way Match
Fukigen Death defeats Lady C and Saya Kamitani (6:03)
:::: Matchguide Rating: 6.64 based on 10 votes. ::::
High Speed Match
AZM vs. Koguma – Time Limit Draw (10:00)
:::: Matchguide Rating: 6.85 based on 12 votes. ::::
Six Man Tag Team Match
Maika, Tam Nakano & Utami Hayashishita defeat Konami, Syuri & Unagi Sayaka (20:42)
:::: Matchguide Rating: 7.71 based on 13 votes. ::::
Six Man Tag Team Match
Giulia, Mina Shirakawa & Starlight Kid defeat Mayu Iwatani, Momo Watanabe & Saki Kashima (23:03)

Stardom Cinderella Summer 2021

Complete name : Stardom Cinderella Summer Tour In Tokyo 480p (Day 3).mp4
Format : MPEG-4
Format profile : Base Media
Codec ID : mp42 (mp42)
File size : 1.04 GiB
Duration : 1 h 52 min
Overall bit rate : 1 322 kb/s

Video
ID : 1
Format : AVC
Format/Info : Advanced Video
Duration : 1 h 52 min
Bit rate : 1 187 kb/s
Width : 720 pixels
Height : 480 pixels
Display aspect ratio : 3:2
Frame rate mode : Constant
Frame rate : 30.000 FPS
Color space : YUV
Chroma subsampling : 4:2:0
Bit depth : 8 bits
Scan type : Progressive
Bits/(Pixel*Frame) : 0.114
Stream size : 958 MiB (90%)
Language : English
Codec configuration box : avc

Stardom Cinderella Summer 2021

Audio
ID : 2
Format : AAC LC
Format/Info : Advanced Audio
Codec ID : mp4a-40-2
Duration : 1 h 52 min
Source duration : 1 h 52 min
Bit rate mode : Constant
Bit rate : 128 kb/s
Channel(s) : 2 channels
Channel layout : L R
Sampling rate : 44.1 kHz
Frame rate : 43.066 FPS (1024 SPF)
Compression mode : Lossy
Stream size : 103 MiB (10%)
Source stream size : 103 MiB (10%)
Title : Stereo
Language : English
Default : Yes
Alternate group : 1

Complete name : Stardom Cinderella Summer Tour In Tokyo (Day 3).mp4
Format : MPEG-4
Format profile : Base Media
Codec ID : isom
File size : 4.01 GiB
Duration : 1 h 52 min
Overall bit rate mode : Constant
Overall bit rate : 5 082 kb/s

Stardom Cinderella Summer 2021

Video
ID : 1
Format : AVC
Format/Info : Advanced Video
Duration : 1 h 52 min
Bit rate mode : Constant
Bit rate : 4 878 kb/s
Width : 1 920 pixels
Height : 1 080 pixels
Display aspect ratio : 16:9
Frame rate : 29.970 (30000/1001) FPS
Color space : YUV
Chroma subsampling : 4:2:0
Bit depth : 8 bits
Scan type : Progressive
Bits/(Pixel*Frame) : 0.078
Stream size : 3.85 GiB (96%)
Codec configuration box : avc

Stardom Cinderella Summer 2021

Audio
ID : 2
Format : AAC LC
Format/Info : Advanced Audio
Codec ID : mp4a-40-2
Duration : 1 h 52 min
Bit rate mode : Constant
Bit rate : 192 kb/s
Channel(s) : 2 channels
Channel layout : L R
Sampling rate : 44.1 kHz
Frame rate : 43.066 FPS (1024 SPF)
Compression mode : Lossy
Stream size : 157 MiB (4%)
Default : Yes
Alternate group : 1

 

Name of the event: Stardom Cinderella Summer Tour In Tokyo – Tag 3
Date: 25.07.2021
Promotion: World Wonder Ring Stardom
Type: Event
Location: Tokyo, Japan
Arena: Korakuen Hall
Attendance: 642

Stardom Cinderella Summer 2021

:::: Matchguide Rating: 5.10 based on 9 votes. ::::
Tag Team Match
Oedo Tai (Rina & Ruaka) defeat Hanan & Hina (7:39)
:::: Matchguide Rating: 5.56 based on 8 votes. ::::
Three Way Match
Fukigen Death defeats Lady C and Saya Kamitani (6:03)
:::: Matchguide Rating: 6.64 based on 10 votes. ::::
High Speed Match
AZM vs. Koguma – Time Limit Draw (10:00)
:::: Matchguide Rating: 6.85 based on 12 votes. ::::
Six Man Tag Team Match
Maika, Tam Nakano & Utami Hayashishita defeat Konami, Syuri & Unagi Sayaka (20:42)
:::: Matchguide Rating: 7.71 based on 13 votes. ::::
Six Man Tag Team Match
Giulia, Mina Shirakawa & Starlight Kid defeat Mayu Iwatani, Momo Watanabe & Saki Kashima (23:03)

Stardom Cinderella Summer 2021

Complete name : Stardom Cinderella Summer Tour In Tokyo 480p (Day 3).mp4
Format : MPEG-4
Format profile : Base Media
Codec ID : mp42 (mp42)
File size : 1.04 GiB
Duration : 1 h 52 min
Overall bit rate : 1 322 kb/s

Video
ID : 1
Format : AVC
Format/Info : Advanced Video
Duration : 1 h 52 min
Bit rate : 1 187 kb/s
Width : 720 pixels
Height : 480 pixels
Display aspect ratio : 3:2
Frame rate mode : Constant
Frame rate : 30.000 FPS
Color space : YUV
Chroma subsampling : 4:2:0
Bit depth : 8 bits
Scan type : Progressive
Bits/(Pixel*Frame) : 0.114
Stream size : 958 MiB (90%)
Language : English
Codec configuration box : avc

Stardom Cinderella Summer 2021

Audio
ID : 2
Format : AAC LC
Format/Info : Advanced Audio
Codec ID : mp4a-40-2
Duration : 1 h 52 min
Source duration : 1 h 52 min
Bit rate mode : Constant
Bit rate : 128 kb/s
Channel(s) : 2 channels
Channel layout : L R
Sampling rate : 44.1 kHz
Frame rate : 43.066 FPS (1024 SPF)
Compression mode : Lossy
Stream size : 103 MiB (10%)
Source stream size : 103 MiB (10%)
Title : Stereo
Language : English
Default : Yes
Alternate group : 1

Complete name : Stardom Cinderella Summer Tour In Tokyo (Day 3).mp4
Format : MPEG-4
Format profile : Base Media
Codec ID : isom
File size : 4.01 GiB
Duration : 1 h 52 min
Overall bit rate mode : Constant
Overall bit rate : 5 082 kb/s

Stardom Cinderella Summer 2021

Video
ID : 1
Format : AVC
Format/Info : Advanced Video
Duration : 1 h 52 min
Bit rate mode : Constant
Bit rate : 4 878 kb/s
Width : 1 920 pixels
Height : 1 080 pixels
Display aspect ratio : 16:9
Frame rate : 29.970 (30000/1001) FPS
Color space : YUV
Chroma subsampling : 4:2:0
Bit depth : 8 bits
Scan type : Progressive
Bits/(Pixel*Frame) : 0.078
Stream size : 3.85 GiB (96%)
Codec configuration box : avc

Stardom Cinderella Summer 2021

Audio
ID : 2
Format : AAC LC
Format/Info : Advanced Audio
Codec ID : mp4a-40-2
Duration : 1 h 52 min
Bit rate mode : Constant
Bit rate : 192 kb/s
Channel(s) : 2 channels
Channel layout : L R
Sampling rate : 44.1 kHz
Frame rate : 43.066 FPS (1024 SPF)
Compression mode : Lossy
Stream size : 157 MiB (4%)
Default : Yes
Alternate group : 1

 

Name of the event: Stardom Cinderella Summer Tour In Tokyo – Tag 3
Date: 25.07.2021
Promotion: World Wonder Ring Stardom
Type: Event
Location: Tokyo, Japan
Arena: Korakuen Hall
Attendance: 642

Stardom Cinderella Summer 2021

:::: Matchguide Rating: 5.10 based on 9 votes. ::::
Tag Team Match
Oedo Tai (Rina & Ruaka) defeat Hanan & Hina (7:39)
:::: Matchguide Rating: 5.56 based on 8 votes. ::::
Three Way Match
Fukigen Death defeats Lady C and Saya Kamitani (6:03)
:::: Matchguide Rating: 6.64 based on 10 votes. ::::
High Speed Match
AZM vs. Koguma – Time Limit Draw (10:00)
:::: Matchguide Rating: 6.85 based on 12 votes. ::::
Six Man Tag Team Match
Maika, Tam Nakano & Utami Hayashishita defeat Konami, Syuri & Unagi Sayaka (20:42)
:::: Matchguide Rating: 7.71 based on 13 votes. ::::
Six Man Tag Team Match
Giulia, Mina Shirakawa & Starlight Kid defeat Mayu Iwatani, Momo Watanabe & Saki Kashima (23:03)

Stardom Cinderella Summer 2021

Complete name : Stardom Cinderella Summer Tour In Tokyo 480p (Day 3).mp4
Format : MPEG-4
Format profile : Base Media
Codec ID : mp42 (mp42)
File size : 1.04 GiB
Duration : 1 h 52 min
Overall bit rate : 1 322 kb/s

Video
ID : 1
Format : AVC
Format/Info : Advanced Video
Duration : 1 h 52 min
Bit rate : 1 187 kb/s
Width : 720 pixels
Height : 480 pixels
Display aspect ratio : 3:2
Frame rate mode : Constant
Frame rate : 30.000 FPS
Color space : YUV
Chroma subsampling : 4:2:0
Bit depth : 8 bits
Scan type : Progressive
Bits/(Pixel*Frame) : 0.114
Stream size : 958 MiB (90%)
Language : English
Codec configuration box : avc

Stardom Cinderella Summer 2021

Audio
ID : 2
Format : AAC LC
Format/Info : Advanced Audio
Codec ID : mp4a-40-2
Duration : 1 h 52 min
Source duration : 1 h 52 min
Bit rate mode : Constant
Bit rate : 128 kb/s
Channel(s) : 2 channels
Channel layout : L R
Sampling rate : 44.1 kHz
Frame rate : 43.066 FPS (1024 SPF)
Compression mode : Lossy
Stream size : 103 MiB (10%)
Source stream size : 103 MiB (10%)
Title : Stereo
Language : English
Default : Yes
Alternate group : 1

Complete name : Stardom Cinderella Summer Tour In Tokyo (Day 3).mp4
Format : MPEG-4
Format profile : Base Media
Codec ID : isom
File size : 4.01 GiB
Duration : 1 h 52 min
Overall bit rate mode : Constant
Overall bit rate : 5 082 kb/s

Stardom Cinderella Summer 2021

Video
ID : 1
Format : AVC
Format/Info : Advanced Video
Duration : 1 h 52 min
Bit rate mode : Constant
Bit rate : 4 878 kb/s
Width : 1 920 pixels
Height : 1 080 pixels
Display aspect ratio : 16:9
Frame rate : 29.970 (30000/1001) FPS
Color space : YUV
Chroma subsampling : 4:2:0
Bit depth : 8 bits
Scan type : Progressive
Bits/(Pixel*Frame) : 0.078
Stream size : 3.85 GiB (96%)
Codec configuration box : avc

Stardom Cinderella Summer 2021

Audio
ID : 2
Format : AAC LC
Format/Info : Advanced Audio
Codec ID : mp4a-40-2
Duration : 1 h 52 min
Bit rate mode : Constant
Bit rate : 192 kb/s
Channel(s) : 2 channels
Channel layout : L R
Sampling rate : 44.1 kHz
Frame rate : 43.066 FPS (1024 SPF)
Compression mode : Lossy
Stream size : 157 MiB (4%)
Default : Yes
Alternate group : 1

 

Name of the event: Stardom Cinderella Summer Tour In Tokyo – Tag 3
Date: 25.07.2021
Promotion: World Wonder Ring Stardom
Type: Event
Location: Tokyo, Japan
Arena: Korakuen Hall
Attendance: 642

Stardom Cinderella Summer 2021

:::: Matchguide Rating: 5.10 based on 9 votes. ::::
Tag Team Match
Oedo Tai (Rina & Ruaka) defeat Hanan & Hina (7:39)
:::: Matchguide Rating: 5.56 based on 8 votes. ::::
Three Way Match
Fukigen Death defeats Lady C and Saya Kamitani (6:03)
:::: Matchguide Rating: 6.64 based on 10 votes. ::::
High Speed Match
AZM vs. Koguma – Time Limit Draw (10:00)
:::: Matchguide Rating: 6.85 based on 12 votes. ::::
Six Man Tag Team Match
Maika, Tam Nakano & Utami Hayashishita defeat Konami, Syuri & Unagi Sayaka (20:42)
:::: Matchguide Rating: 7.71 based on 13 votes. ::::
Six Man Tag Team Match
Giulia, Mina Shirakawa & Starlight Kid defeat Mayu Iwatani, Momo Watanabe & Saki Kashima (23:03)

Stardom Cinderella Summer 2021

Complete name : Stardom Cinderella Summer Tour In Tokyo 480p (Day 3).mp4
Format : MPEG-4
Format profile : Base Media
Codec ID : mp42 (mp42)
File size : 1.04 GiB
Duration : 1 h 52 min
Overall bit rate : 1 322 kb/s

Video
ID : 1
Format : AVC
Format/Info : Advanced Video
Duration : 1 h 52 min
Bit rate : 1 187 kb/s
Width : 720 pixels
Height : 480 pixels
Display aspect ratio : 3:2
Frame rate mode : Constant
Frame rate : 30.000 FPS
Color space : YUV
Chroma subsampling : 4:2:0
Bit depth : 8 bits
Scan type : Progressive
Bits/(Pixel*Frame) : 0.114
Stream size : 958 MiB (90%)
Language : English
Codec configuration box : avc

Stardom Cinderella Summer 2021

Audio
ID : 2
Format : AAC LC
Format/Info : Advanced Audio
Codec ID : mp4a-40-2
Duration : 1 h 52 min
Source duration : 1 h 52 min
Bit rate mode : Constant
Bit rate : 128 kb/s
Channel(s) : 2 channels
Channel layout : L R
Sampling rate : 44.1 kHz
Frame rate : 43.066 FPS (1024 SPF)
Compression mode : Lossy
Stream size : 103 MiB (10%)
Source stream size : 103 MiB (10%)
Title : Stereo
Language : English
Default : Yes
Alternate group : 1

Complete name : Stardom Cinderella Summer Tour In Tokyo (Day 3).mp4
Format : MPEG-4
Format profile : Base Media
Codec ID : isom
File size : 4.01 GiB
Duration : 1 h 52 min
Overall bit rate mode : Constant
Overall bit rate : 5 082 kb/s

Stardom Cinderella Summer 2021

Video
ID : 1
Format : AVC
Format/Info : Advanced Video
Duration : 1 h 52 min
Bit rate mode : Constant
Bit rate : 4 878 kb/s
Width : 1 920 pixels
Height : 1 080 pixels
Display aspect ratio : 16:9
Frame rate : 29.970 (30000/1001) FPS
Color space : YUV
Chroma subsampling : 4:2:0
Bit depth : 8 bits
Scan type : Progressive
Bits/(Pixel*Frame) : 0.078
Stream size : 3.85 GiB (96%)
Codec configuration box : avc

Stardom Cinderella Summer 2021

Audio
ID : 2
Format : AAC LC
Format/Info : Advanced Audio
Codec ID : mp4a-40-2
Duration : 1 h 52 min
Bit rate mode : Constant
Bit rate : 192 kb/s
Channel(s) : 2 channels
Channel layout : L R
Sampling rate : 44.1 kHz
Frame rate : 43.066 FPS (1024 SPF)
Compression mode : Lossy
Stream size : 157 MiB (4%)
Default : Yes
Alternate group : 1

 

Name of the event: Stardom Cinderella Summer Tour In Tokyo – Tag 3
Date: 25.07.2021
Promotion: World Wonder Ring Stardom
Type: Event
Location: Tokyo, Japan
Arena: Korakuen Hall
Attendance: 642

Stardom Cinderella Summer 2021

:::: Matchguide Rating: 5.10 based on 9 votes. ::::
Tag Team Match
Oedo Tai (Rina & Ruaka) defeat Hanan & Hina (7:39)
:::: Matchguide Rating: 5.56 based on 8 votes. ::::
Three Way Match
Fukigen Death defeats Lady C and Saya Kamitani (6:03)
:::: Matchguide Rating: 6.64 based on 10 votes. ::::
High Speed Match
AZM vs. Koguma – Time Limit Draw (10:00)
:::: Matchguide Rating: 6.85 based on 12 votes. ::::
Six Man Tag Team Match
Maika, Tam Nakano & Utami Hayashishita defeat Konami, Syuri & Unagi Sayaka (20:42)
:::: Matchguide Rating: 7.71 based on 13 votes. ::::
Six Man Tag Team Match
Giulia, Mina Shirakawa & Starlight Kid defeat Mayu Iwatani, Momo Watanabe & Saki Kashima (23:03)

Stardom Cinderella Summer 2021

Complete name : Stardom Cinderella Summer Tour In Tokyo 480p (Day 3).mp4
Format : MPEG-4
Format profile : Base Media
Codec ID : mp42 (mp42)
File size : 1.04 GiB
Duration : 1 h 52 min
Overall bit rate : 1 322 kb/s

Video
ID : 1
Format : AVC
Format/Info : Advanced Video
Duration : 1 h 52 min
Bit rate : 1 187 kb/s
Width : 720 pixels
Height : 480 pixels
Display aspect ratio : 3:2
Frame rate mode : Constant
Frame rate : 30.000 FPS
Color space : YUV
Chroma subsampling : 4:2:0
Bit depth : 8 bits
Scan type : Progressive
Bits/(Pixel*Frame) : 0.114
Stream size : 958 MiB (90%)
Language : English
Codec configuration box : avc

Stardom Cinderella Summer 2021

Audio
ID : 2
Format : AAC LC
Format/Info : Advanced Audio
Codec ID : mp4a-40-2
Duration : 1 h 52 min
Source duration : 1 h 52 min
Bit rate mode : Constant
Bit rate : 128 kb/s
Channel(s) : 2 channels
Channel layout : L R
Sampling rate : 44.1 kHz
Frame rate : 43.066 FPS (1024 SPF)
Compression mode : Lossy
Stream size : 103 MiB (10%)
Source stream size : 103 MiB (10%)
Title : Stereo
Language : English
Default : Yes
Alternate group : 1

Complete name : Stardom Cinderella Summer Tour In Tokyo (Day 3).mp4
Format : MPEG-4
Format profile : Base Media
Codec ID : isom
File size : 4.01 GiB
Duration : 1 h 52 min
Overall bit rate mode : Constant
Overall bit rate : 5 082 kb/s

Stardom Cinderella Summer 2021

Video
ID : 1
Format : AVC
Format/Info : Advanced Video
Duration : 1 h 52 min
Bit rate mode : Constant
Bit rate : 4 878 kb/s
Width : 1 920 pixels
Height : 1 080 pixels
Display aspect ratio : 16:9
Frame rate : 29.970 (30000/1001) FPS
Color space : YUV
Chroma subsampling : 4:2:0
Bit depth : 8 bits
Scan type : Progressive
Bits/(Pixel*Frame) : 0.078
Stream size : 3.85 GiB (96%)
Codec configuration box : avc

Stardom Cinderella Summer 2021

Audio
ID : 2
Format : AAC LC
Format/Info : Advanced Audio
Codec ID : mp4a-40-2
Duration : 1 h 52 min
Bit rate mode : Constant
Bit rate : 192 kb/s
Channel(s) : 2 channels
Channel layout : L R
Sampling rate : 44.1 kHz
Frame rate : 43.066 FPS (1024 SPF)
Compression mode : Lossy
Stream size : 157 MiB (4%)
Default : Yes
Alternate group : 1

 

Name of the event: Stardom Cinderella Summer Tour In Tokyo – Tag 3
Date: 25.07.2021
Promotion: World Wonder Ring Stardom
Type: Event
Location: Tokyo, Japan
Arena: Korakuen Hall
Attendance: 642

Stardom Cinderella Summer 2021

:::: Matchguide Rating: 5.10 based on 9 votes. ::::
Tag Team Match
Oedo Tai (Rina & Ruaka) defeat Hanan & Hina (7:39)
:::: Matchguide Rating: 5.56 based on 8 votes. ::::
Three Way Match
Fukigen Death defeats Lady C and Saya Kamitani (6:03)
:::: Matchguide Rating: 6.64 based on 10 votes. ::::
High Speed Match
AZM vs. Koguma – Time Limit Draw (10:00)
:::: Matchguide Rating: 6.85 based on 12 votes. ::::
Six Man Tag Team Match
Maika, Tam Nakano & Utami Hayashishita defeat Konami, Syuri & Unagi Sayaka (20:42)
:::: Matchguide Rating: 7.71 based on 13 votes. ::::
Six Man Tag Team Match
Giulia, Mina Shirakawa & Starlight Kid defeat Mayu Iwatani, Momo Watanabe & Saki Kashima (23:03)

Stardom Cinderella Summer 2021

 

[collapse]

 

 

https://dx-tv.com/

Leave a Reply

Your email address will not be published. Required fields are marked *

This site uses Akismet to reduce spam. Learn how your comment data is processed.