Stardom Cinderella Summer 2021 Tour In Sendai Free

Stardom Cinderella Summer 2021 24 07 Tour In Sendai Online Free Replay DX-TV

Stardom Cinderella

 Stardom Cinderella

 

 

 

Download Links with premium High Speed


Dopapk

 

 

Show Links

 

 

Nitroflare

 

 

Show Links

 

http://shrt10.com/WFRxGnfX

 

[collapse]

 

 

Rapidgator

 

 

Show Links

 

http://shrt10.com/WWatIS8

 

[collapse]

 

 

Uploaded

 

 

Show Links

 

 

[collapse]

 

 

 

 

Uploaded By Site DX-TV.com

 

 

Show Info This Show

Stardom Cinderella

 

Complete name : Stardom Cinderella Summer Tour In Sendai (07.24.2021).mp4
Format : MPEG-4
Format profile : Base Media
Codec ID : isom
File size : 724 MiB
Duration : 11 min 19 s
Overall bit rate mode : Variable
Overall bit rate : 8 928 kb/s

Video
ID : 1
Format : AVC
Format/Info : Advanced Video
Duration : 11 min 19 s
Bit rate mode : Variable
Bit rate : 8 726 kb/s
Maximum bit rate : 2 000 kb/s
Width : 1 920 pixels
Height : 1 080 pixels
Display aspect ratio : 16:9
Frame rate mode : Constant
Frame rate : 29.970 (30000/1001) FPS
Color space : YUV
Chroma subsampling : 4:2:0
Bit depth : 8 bits
Scan type : Progressive
Bits/(Pixel*Frame) : 0.140
Stream size : 707 MiB (98%)
Codec configuration box : av

Stardom Cinderella

Audio
ID : 2
Format : AAC LC
Codec ID : mp4a-40-2
Duration : 11 min 19 s
Bit rate mode : Constant
Bit rate : 192 kb/s
Channel(s) : 2 channels
Channel layout : L R
Sampling rate : 44.1 kHz
Frame rate : 43.066 FPS (1024 SPF)
Compression mode : Lossy
Stream size : 15.8 MiB (2%)
Default : Yes
Alternate group : 1

Complete name : Stardom Cinderella Summer Tour In Sendai (07.24.2021)\04 Tag Team Match.mp4
Format : MPEG-4
Format profile : Base Media
Codec ID : isom
File size : 2.04 GiB
Duration : 27 min 45 s
Overall bit rate mode : Variable
Overall bit rate : 10.5 Mb/s

Stardom Cinderella

Video
ID : 1
Format : AVC
Duration : 27 min 45 s
Bit rate mode : Variable
Bit rate : 10.3 Mb/s
Maximum bit rate : 2 000 kb/s
Width : 1 920 pixels
Height : 1 080 pixels
Display aspect ratio : 16:9
Frame rate mode : Constant
Frame rate : 29.970 (30000/1001) FPS
Color space : YUV
Chroma subsampling : 4:2:0
Bit depth : 8 bits
Scan type : Progressive
Bits/(Pixel*Frame) : 0.166
Stream size : 2.00 GiB (98%)
Codec configuration box : avcC

Stardom Cinderella

Audio
ID : 2
Format : AAC LC
Format/Info : Advanced Audio
Codec ID : mp4a-40-2
Duration : 27 min 45 s
Bit rate mode : Constant
Bit rate : 192 kb/s
Channel(s) : 2 channels
Channel layout : L R
Sampling rate : 44.1 kHz
Frame rate : 43.066 FPS (1024 SPF)
Compression mode : Lossy
Stream size : 38.7 MiB (2%)
Default : Yes
Alternate group : 1

Stardom Cinderella

Singles Match
Konami defeated Lady C.

Singles Match
Maika defeated Saki Kashima.

6 Woman Tag Team Match
Cosmic Angels (Unagi Sayaka, Mina Shirakawa & Tam Nakano) defeated Queen’s Quest (Saya Kamitani, Hina & AZM).

Tag Team Match
Donna del Mondo (Giulia & Syuri) vs. Queen’s Quest (Utami Hayashishita & Momo Watanabe) went to a 20 minute time limit draw.

6 Woman Tag Team Match
STARS (Mayu Iwatani, Koguma & Hanan) defeated Oedo-tai (Starlight Kid, Ruaka & Rina).

Stardom Cinderella

Complete name : Stardom Cinderella Summer Tour In Sendai (07.24.2021).mp4
Format : MPEG-4
Format profile : Base Media
Codec ID : isom
File size : 724 MiB
Duration : 11 min 19 s
Overall bit rate mode : Variable
Overall bit rate : 8 928 kb/s

Video
ID : 1
Format : AVC
Format/Info : Advanced Video
Duration : 11 min 19 s
Bit rate mode : Variable
Bit rate : 8 726 kb/s
Maximum bit rate : 2 000 kb/s
Width : 1 920 pixels
Height : 1 080 pixels
Display aspect ratio : 16:9
Frame rate mode : Constant
Frame rate : 29.970 (30000/1001) FPS
Color space : YUV
Chroma subsampling : 4:2:0
Bit depth : 8 bits
Scan type : Progressive
Bits/(Pixel*Frame) : 0.140
Stream size : 707 MiB (98%)
Codec configuration box : av

Stardom Cinderella

Audio
ID : 2
Format : AAC LC
Codec ID : mp4a-40-2
Duration : 11 min 19 s
Bit rate mode : Constant
Bit rate : 192 kb/s
Channel(s) : 2 channels
Channel layout : L R
Sampling rate : 44.1 kHz
Frame rate : 43.066 FPS (1024 SPF)
Compression mode : Lossy
Stream size : 15.8 MiB (2%)
Default : Yes
Alternate group : 1

Complete name : Stardom Cinderella Summer Tour In Sendai (07.24.2021)\04 Tag Team Match.mp4
Format : MPEG-4
Format profile : Base Media
Codec ID : isom
File size : 2.04 GiB
Duration : 27 min 45 s
Overall bit rate mode : Variable
Overall bit rate : 10.5 Mb/s

Stardom Cinderella

Video
ID : 1
Format : AVC
Duration : 27 min 45 s
Bit rate mode : Variable
Bit rate : 10.3 Mb/s
Maximum bit rate : 2 000 kb/s
Width : 1 920 pixels
Height : 1 080 pixels
Display aspect ratio : 16:9
Frame rate mode : Constant
Frame rate : 29.970 (30000/1001) FPS
Color space : YUV
Chroma subsampling : 4:2:0
Bit depth : 8 bits
Scan type : Progressive
Bits/(Pixel*Frame) : 0.166
Stream size : 2.00 GiB (98%)
Codec configuration box : avcC

Stardom Cinderella

Audio
ID : 2
Format : AAC LC
Format/Info : Advanced Audio
Codec ID : mp4a-40-2
Duration : 27 min 45 s
Bit rate mode : Constant
Bit rate : 192 kb/s
Channel(s) : 2 channels
Channel layout : L R
Sampling rate : 44.1 kHz
Frame rate : 43.066 FPS (1024 SPF)
Compression mode : Lossy
Stream size : 38.7 MiB (2%)
Default : Yes
Alternate group : 1

Stardom Cinderella

Singles Match
Konami defeated Lady C.

Singles Match
Maika defeated Saki Kashima.

6 Woman Tag Team Match
Cosmic Angels (Unagi Sayaka, Mina Shirakawa & Tam Nakano) defeated Queen’s Quest (Saya Kamitani, Hina & AZM).

Tag Team Match
Donna del Mondo (Giulia & Syuri) vs. Queen’s Quest (Utami Hayashishita & Momo Watanabe) went to a 20 minute time limit draw.

6 Woman Tag Team Match
STARS (Mayu Iwatani, Koguma & Hanan) defeated Oedo-tai (Starlight Kid, Ruaka & Rina).

Stardom Cinderella

Complete name : Stardom Cinderella Summer Tour In Sendai (07.24.2021).mp4
Format : MPEG-4
Format profile : Base Media
Codec ID : isom
File size : 724 MiB
Duration : 11 min 19 s
Overall bit rate mode : Variable
Overall bit rate : 8 928 kb/s

Video
ID : 1
Format : AVC
Format/Info : Advanced Video
Duration : 11 min 19 s
Bit rate mode : Variable
Bit rate : 8 726 kb/s
Maximum bit rate : 2 000 kb/s
Width : 1 920 pixels
Height : 1 080 pixels
Display aspect ratio : 16:9
Frame rate mode : Constant
Frame rate : 29.970 (30000/1001) FPS
Color space : YUV
Chroma subsampling : 4:2:0
Bit depth : 8 bits
Scan type : Progressive
Bits/(Pixel*Frame) : 0.140
Stream size : 707 MiB (98%)
Codec configuration box : av

Stardom Cinderella

Audio
ID : 2
Format : AAC LC
Codec ID : mp4a-40-2
Duration : 11 min 19 s
Bit rate mode : Constant
Bit rate : 192 kb/s
Channel(s) : 2 channels
Channel layout : L R
Sampling rate : 44.1 kHz
Frame rate : 43.066 FPS (1024 SPF)
Compression mode : Lossy
Stream size : 15.8 MiB (2%)
Default : Yes
Alternate group : 1

Complete name : Stardom Cinderella Summer Tour In Sendai (07.24.2021)\04 Tag Team Match.mp4
Format : MPEG-4
Format profile : Base Media
Codec ID : isom
File size : 2.04 GiB
Duration : 27 min 45 s
Overall bit rate mode : Variable
Overall bit rate : 10.5 Mb/s

Stardom Cinderella

Video
ID : 1
Format : AVC
Duration : 27 min 45 s
Bit rate mode : Variable
Bit rate : 10.3 Mb/s
Maximum bit rate : 2 000 kb/s
Width : 1 920 pixels
Height : 1 080 pixels
Display aspect ratio : 16:9
Frame rate mode : Constant
Frame rate : 29.970 (30000/1001) FPS
Color space : YUV
Chroma subsampling : 4:2:0
Bit depth : 8 bits
Scan type : Progressive
Bits/(Pixel*Frame) : 0.166
Stream size : 2.00 GiB (98%)
Codec configuration box : avcC

Stardom Cinderella

Audio
ID : 2
Format : AAC LC
Format/Info : Advanced Audio
Codec ID : mp4a-40-2
Duration : 27 min 45 s
Bit rate mode : Constant
Bit rate : 192 kb/s
Channel(s) : 2 channels
Channel layout : L R
Sampling rate : 44.1 kHz
Frame rate : 43.066 FPS (1024 SPF)
Compression mode : Lossy
Stream size : 38.7 MiB (2%)
Default : Yes
Alternate group : 1

Stardom Cinderella

Singles Match
Konami defeated Lady C.

Singles Match
Maika defeated Saki Kashima.

6 Woman Tag Team Match
Cosmic Angels (Unagi Sayaka, Mina Shirakawa & Tam Nakano) defeated Queen’s Quest (Saya Kamitani, Hina & AZM).

Tag Team Match
Donna del Mondo (Giulia & Syuri) vs. Queen’s Quest (Utami Hayashishita & Momo Watanabe) went to a 20 minute time limit draw.

6 Woman Tag Team Match
STARS (Mayu Iwatani, Koguma & Hanan) defeated Oedo-tai (Starlight Kid, Ruaka & Rina).

Stardom Cinderella

Complete name : Stardom Cinderella Summer Tour In Sendai (07.24.2021).mp4
Format : MPEG-4
Format profile : Base Media
Codec ID : isom
File size : 724 MiB
Duration : 11 min 19 s
Overall bit rate mode : Variable
Overall bit rate : 8 928 kb/s

Video
ID : 1
Format : AVC
Format/Info : Advanced Video
Duration : 11 min 19 s
Bit rate mode : Variable
Bit rate : 8 726 kb/s
Maximum bit rate : 2 000 kb/s
Width : 1 920 pixels
Height : 1 080 pixels
Display aspect ratio : 16:9
Frame rate mode : Constant
Frame rate : 29.970 (30000/1001) FPS
Color space : YUV
Chroma subsampling : 4:2:0
Bit depth : 8 bits
Scan type : Progressive
Bits/(Pixel*Frame) : 0.140
Stream size : 707 MiB (98%)
Codec configuration box : av

Stardom Cinderella

Audio
ID : 2
Format : AAC LC
Codec ID : mp4a-40-2
Duration : 11 min 19 s
Bit rate mode : Constant
Bit rate : 192 kb/s
Channel(s) : 2 channels
Channel layout : L R
Sampling rate : 44.1 kHz
Frame rate : 43.066 FPS (1024 SPF)
Compression mode : Lossy
Stream size : 15.8 MiB (2%)
Default : Yes
Alternate group : 1

Complete name : Stardom Cinderella Summer Tour In Sendai (07.24.2021)\04 Tag Team Match.mp4
Format : MPEG-4
Format profile : Base Media
Codec ID : isom
File size : 2.04 GiB
Duration : 27 min 45 s
Overall bit rate mode : Variable
Overall bit rate : 10.5 Mb/s

Stardom Cinderella

Video
ID : 1
Format : AVC
Duration : 27 min 45 s
Bit rate mode : Variable
Bit rate : 10.3 Mb/s
Maximum bit rate : 2 000 kb/s
Width : 1 920 pixels
Height : 1 080 pixels
Display aspect ratio : 16:9
Frame rate mode : Constant
Frame rate : 29.970 (30000/1001) FPS
Color space : YUV
Chroma subsampling : 4:2:0
Bit depth : 8 bits
Scan type : Progressive
Bits/(Pixel*Frame) : 0.166
Stream size : 2.00 GiB (98%)
Codec configuration box : avcC

Stardom Cinderella

Audio
ID : 2
Format : AAC LC
Format/Info : Advanced Audio
Codec ID : mp4a-40-2
Duration : 27 min 45 s
Bit rate mode : Constant
Bit rate : 192 kb/s
Channel(s) : 2 channels
Channel layout : L R
Sampling rate : 44.1 kHz
Frame rate : 43.066 FPS (1024 SPF)
Compression mode : Lossy
Stream size : 38.7 MiB (2%)
Default : Yes
Alternate group : 1

Stardom Cinderella

Singles Match
Konami defeated Lady C.

Singles Match
Maika defeated Saki Kashima.

6 Woman Tag Team Match
Cosmic Angels (Unagi Sayaka, Mina Shirakawa & Tam Nakano) defeated Queen’s Quest (Saya Kamitani, Hina & AZM).

Tag Team Match
Donna del Mondo (Giulia & Syuri) vs. Queen’s Quest (Utami Hayashishita & Momo Watanabe) went to a 20 minute time limit draw.

6 Woman Tag Team Match
STARS (Mayu Iwatani, Koguma & Hanan) defeated Oedo-tai (Starlight Kid, Ruaka & Rina).

Stardom Cinderella

Complete name : Stardom Cinderella Summer Tour In Sendai (07.24.2021).mp4
Format : MPEG-4
Format profile : Base Media
Codec ID : isom
File size : 724 MiB
Duration : 11 min 19 s
Overall bit rate mode : Variable
Overall bit rate : 8 928 kb/s

Video
ID : 1
Format : AVC
Format/Info : Advanced Video
Duration : 11 min 19 s
Bit rate mode : Variable
Bit rate : 8 726 kb/s
Maximum bit rate : 2 000 kb/s
Width : 1 920 pixels
Height : 1 080 pixels
Display aspect ratio : 16:9
Frame rate mode : Constant
Frame rate : 29.970 (30000/1001) FPS
Color space : YUV
Chroma subsampling : 4:2:0
Bit depth : 8 bits
Scan type : Progressive
Bits/(Pixel*Frame) : 0.140
Stream size : 707 MiB (98%)
Codec configuration box : av

Stardom Cinderella

Audio
ID : 2
Format : AAC LC
Codec ID : mp4a-40-2
Duration : 11 min 19 s
Bit rate mode : Constant
Bit rate : 192 kb/s
Channel(s) : 2 channels
Channel layout : L R
Sampling rate : 44.1 kHz
Frame rate : 43.066 FPS (1024 SPF)
Compression mode : Lossy
Stream size : 15.8 MiB (2%)
Default : Yes
Alternate group : 1

Complete name : Stardom Cinderella Summer Tour In Sendai (07.24.2021)\04 Tag Team Match.mp4
Format : MPEG-4
Format profile : Base Media
Codec ID : isom
File size : 2.04 GiB
Duration : 27 min 45 s
Overall bit rate mode : Variable
Overall bit rate : 10.5 Mb/s

Stardom Cinderella

Video
ID : 1
Format : AVC
Duration : 27 min 45 s
Bit rate mode : Variable
Bit rate : 10.3 Mb/s
Maximum bit rate : 2 000 kb/s
Width : 1 920 pixels
Height : 1 080 pixels
Display aspect ratio : 16:9
Frame rate mode : Constant
Frame rate : 29.970 (30000/1001) FPS
Color space : YUV
Chroma subsampling : 4:2:0
Bit depth : 8 bits
Scan type : Progressive
Bits/(Pixel*Frame) : 0.166
Stream size : 2.00 GiB (98%)
Codec configuration box : avcC

Stardom Cinderella

Audio
ID : 2
Format : AAC LC
Format/Info : Advanced Audio
Codec ID : mp4a-40-2
Duration : 27 min 45 s
Bit rate mode : Constant
Bit rate : 192 kb/s
Channel(s) : 2 channels
Channel layout : L R
Sampling rate : 44.1 kHz
Frame rate : 43.066 FPS (1024 SPF)
Compression mode : Lossy
Stream size : 38.7 MiB (2%)
Default : Yes
Alternate group : 1

Stardom Cinderella

Singles Match
Konami defeated Lady C.

Singles Match
Maika defeated Saki Kashima.

6 Woman Tag Team Match
Cosmic Angels (Unagi Sayaka, Mina Shirakawa & Tam Nakano) defeated Queen’s Quest (Saya Kamitani, Hina & AZM).

Tag Team Match
Donna del Mondo (Giulia & Syuri) vs. Queen’s Quest (Utami Hayashishita & Momo Watanabe) went to a 20 minute time limit draw.

6 Woman Tag Team Match
STARS (Mayu Iwatani, Koguma & Hanan) defeated Oedo-tai (Starlight Kid, Ruaka & Rina).

Stardom Cinderella

Complete name : Stardom Cinderella Summer Tour In Sendai (07.24.2021).mp4
Format : MPEG-4
Format profile : Base Media
Codec ID : isom
File size : 724 MiB
Duration : 11 min 19 s
Overall bit rate mode : Variable
Overall bit rate : 8 928 kb/s

Video
ID : 1
Format : AVC
Format/Info : Advanced Video
Duration : 11 min 19 s
Bit rate mode : Variable
Bit rate : 8 726 kb/s
Maximum bit rate : 2 000 kb/s
Width : 1 920 pixels
Height : 1 080 pixels
Display aspect ratio : 16:9
Frame rate mode : Constant
Frame rate : 29.970 (30000/1001) FPS
Color space : YUV
Chroma subsampling : 4:2:0
Bit depth : 8 bits
Scan type : Progressive
Bits/(Pixel*Frame) : 0.140
Stream size : 707 MiB (98%)
Codec configuration box : av

Stardom Cinderella

Audio
ID : 2
Format : AAC LC
Codec ID : mp4a-40-2
Duration : 11 min 19 s
Bit rate mode : Constant
Bit rate : 192 kb/s
Channel(s) : 2 channels
Channel layout : L R
Sampling rate : 44.1 kHz
Frame rate : 43.066 FPS (1024 SPF)
Compression mode : Lossy
Stream size : 15.8 MiB (2%)
Default : Yes
Alternate group : 1

Complete name : Stardom Cinderella Summer Tour In Sendai (07.24.2021)\04 Tag Team Match.mp4
Format : MPEG-4
Format profile : Base Media
Codec ID : isom
File size : 2.04 GiB
Duration : 27 min 45 s
Overall bit rate mode : Variable
Overall bit rate : 10.5 Mb/s

Stardom Cinderella

Video
ID : 1
Format : AVC
Duration : 27 min 45 s
Bit rate mode : Variable
Bit rate : 10.3 Mb/s
Maximum bit rate : 2 000 kb/s
Width : 1 920 pixels
Height : 1 080 pixels
Display aspect ratio : 16:9
Frame rate mode : Constant
Frame rate : 29.970 (30000/1001) FPS
Color space : YUV
Chroma subsampling : 4:2:0
Bit depth : 8 bits
Scan type : Progressive
Bits/(Pixel*Frame) : 0.166
Stream size : 2.00 GiB (98%)
Codec configuration box : avcC

Stardom Cinderella

Audio
ID : 2
Format : AAC LC
Format/Info : Advanced Audio
Codec ID : mp4a-40-2
Duration : 27 min 45 s
Bit rate mode : Constant
Bit rate : 192 kb/s
Channel(s) : 2 channels
Channel layout : L R
Sampling rate : 44.1 kHz
Frame rate : 43.066 FPS (1024 SPF)
Compression mode : Lossy
Stream size : 38.7 MiB (2%)
Default : Yes
Alternate group : 1

Stardom Cinderella

Singles Match
Konami defeated Lady C.

Singles Match
Maika defeated Saki Kashima.

6 Woman Tag Team Match
Cosmic Angels (Unagi Sayaka, Mina Shirakawa & Tam Nakano) defeated Queen’s Quest (Saya Kamitani, Hina & AZM).

Tag Team Match
Donna del Mondo (Giulia & Syuri) vs. Queen’s Quest (Utami Hayashishita & Momo Watanabe) went to a 20 minute time limit draw.

6 Woman Tag Team Match
STARS (Mayu Iwatani, Koguma & Hanan) defeated Oedo-tai (Starlight Kid, Ruaka & Rina).

Stardom Cinderella

Complete name : Stardom Cinderella Summer Tour In Sendai (07.24.2021).mp4
Format : MPEG-4
Format profile : Base Media
Codec ID : isom
File size : 724 MiB
Duration : 11 min 19 s
Overall bit rate mode : Variable
Overall bit rate : 8 928 kb/s

Video
ID : 1
Format : AVC
Format/Info : Advanced Video
Duration : 11 min 19 s
Bit rate mode : Variable
Bit rate : 8 726 kb/s
Maximum bit rate : 2 000 kb/s
Width : 1 920 pixels
Height : 1 080 pixels
Display aspect ratio : 16:9
Frame rate mode : Constant
Frame rate : 29.970 (30000/1001) FPS
Color space : YUV
Chroma subsampling : 4:2:0
Bit depth : 8 bits
Scan type : Progressive
Bits/(Pixel*Frame) : 0.140
Stream size : 707 MiB (98%)
Codec configuration box : av

Stardom Cinderella

Audio
ID : 2
Format : AAC LC
Codec ID : mp4a-40-2
Duration : 11 min 19 s
Bit rate mode : Constant
Bit rate : 192 kb/s
Channel(s) : 2 channels
Channel layout : L R
Sampling rate : 44.1 kHz
Frame rate : 43.066 FPS (1024 SPF)
Compression mode : Lossy
Stream size : 15.8 MiB (2%)
Default : Yes
Alternate group : 1

Complete name : Stardom Cinderella Summer Tour In Sendai (07.24.2021)\04 Tag Team Match.mp4
Format : MPEG-4
Format profile : Base Media
Codec ID : isom
File size : 2.04 GiB
Duration : 27 min 45 s
Overall bit rate mode : Variable
Overall bit rate : 10.5 Mb/s

Stardom Cinderella

Video
ID : 1
Format : AVC
Duration : 27 min 45 s
Bit rate mode : Variable
Bit rate : 10.3 Mb/s
Maximum bit rate : 2 000 kb/s
Width : 1 920 pixels
Height : 1 080 pixels
Display aspect ratio : 16:9
Frame rate mode : Constant
Frame rate : 29.970 (30000/1001) FPS
Color space : YUV
Chroma subsampling : 4:2:0
Bit depth : 8 bits
Scan type : Progressive
Bits/(Pixel*Frame) : 0.166
Stream size : 2.00 GiB (98%)
Codec configuration box : avcC

Stardom Cinderella

Audio
ID : 2
Format : AAC LC
Format/Info : Advanced Audio
Codec ID : mp4a-40-2
Duration : 27 min 45 s
Bit rate mode : Constant
Bit rate : 192 kb/s
Channel(s) : 2 channels
Channel layout : L R
Sampling rate : 44.1 kHz
Frame rate : 43.066 FPS (1024 SPF)
Compression mode : Lossy
Stream size : 38.7 MiB (2%)
Default : Yes
Alternate group : 1

Stardom Cinderella

Singles Match
Konami defeated Lady C.

Singles Match
Maika defeated Saki Kashima.

6 Woman Tag Team Match
Cosmic Angels (Unagi Sayaka, Mina Shirakawa & Tam Nakano) defeated Queen’s Quest (Saya Kamitani, Hina & AZM).

Tag Team Match
Donna del Mondo (Giulia & Syuri) vs. Queen’s Quest (Utami Hayashishita & Momo Watanabe) went to a 20 minute time limit draw.

6 Woman Tag Team Match
STARS (Mayu Iwatani, Koguma & Hanan) defeated Oedo-tai (Starlight Kid, Ruaka & Rina).

Stardom Cinderella

Complete name : Stardom Cinderella Summer Tour In Sendai (07.24.2021).mp4
Format : MPEG-4
Format profile : Base Media
Codec ID : isom
File size : 724 MiB
Duration : 11 min 19 s
Overall bit rate mode : Variable
Overall bit rate : 8 928 kb/s

Video
ID : 1
Format : AVC
Format/Info : Advanced Video
Duration : 11 min 19 s
Bit rate mode : Variable
Bit rate : 8 726 kb/s
Maximum bit rate : 2 000 kb/s
Width : 1 920 pixels
Height : 1 080 pixels
Display aspect ratio : 16:9
Frame rate mode : Constant
Frame rate : 29.970 (30000/1001) FPS
Color space : YUV
Chroma subsampling : 4:2:0
Bit depth : 8 bits
Scan type : Progressive
Bits/(Pixel*Frame) : 0.140
Stream size : 707 MiB (98%)
Codec configuration box : av

Stardom Cinderella

Audio
ID : 2
Format : AAC LC
Codec ID : mp4a-40-2
Duration : 11 min 19 s
Bit rate mode : Constant
Bit rate : 192 kb/s
Channel(s) : 2 channels
Channel layout : L R
Sampling rate : 44.1 kHz
Frame rate : 43.066 FPS (1024 SPF)
Compression mode : Lossy
Stream size : 15.8 MiB (2%)
Default : Yes
Alternate group : 1

Complete name : Stardom Cinderella Summer Tour In Sendai (07.24.2021)\04 Tag Team Match.mp4
Format : MPEG-4
Format profile : Base Media
Codec ID : isom
File size : 2.04 GiB
Duration : 27 min 45 s
Overall bit rate mode : Variable
Overall bit rate : 10.5 Mb/s

Stardom Cinderella

Video
ID : 1
Format : AVC
Duration : 27 min 45 s
Bit rate mode : Variable
Bit rate : 10.3 Mb/s
Maximum bit rate : 2 000 kb/s
Width : 1 920 pixels
Height : 1 080 pixels
Display aspect ratio : 16:9
Frame rate mode : Constant
Frame rate : 29.970 (30000/1001) FPS
Color space : YUV
Chroma subsampling : 4:2:0
Bit depth : 8 bits
Scan type : Progressive
Bits/(Pixel*Frame) : 0.166
Stream size : 2.00 GiB (98%)
Codec configuration box : avcC

Stardom Cinderella

Audio
ID : 2
Format : AAC LC
Format/Info : Advanced Audio
Codec ID : mp4a-40-2
Duration : 27 min 45 s
Bit rate mode : Constant
Bit rate : 192 kb/s
Channel(s) : 2 channels
Channel layout : L R
Sampling rate : 44.1 kHz
Frame rate : 43.066 FPS (1024 SPF)
Compression mode : Lossy
Stream size : 38.7 MiB (2%)
Default : Yes
Alternate group : 1

Stardom Cinderella

Singles Match
Konami defeated Lady C.

Singles Match
Maika defeated Saki Kashima.

6 Woman Tag Team Match
Cosmic Angels (Unagi Sayaka, Mina Shirakawa & Tam Nakano) defeated Queen’s Quest (Saya Kamitani, Hina & AZM).

Tag Team Match
Donna del Mondo (Giulia & Syuri) vs. Queen’s Quest (Utami Hayashishita & Momo Watanabe) went to a 20 minute time limit draw.

6 Woman Tag Team Match
STARS (Mayu Iwatani, Koguma & Hanan) defeated Oedo-tai (Starlight Kid, Ruaka & Rina).

Stardom Cinderella

Complete name : Stardom Cinderella Summer Tour In Sendai (07.24.2021).mp4
Format : MPEG-4
Format profile : Base Media
Codec ID : isom
File size : 724 MiB
Duration : 11 min 19 s
Overall bit rate mode : Variable
Overall bit rate : 8 928 kb/s

Video
ID : 1
Format : AVC
Format/Info : Advanced Video
Duration : 11 min 19 s
Bit rate mode : Variable
Bit rate : 8 726 kb/s
Maximum bit rate : 2 000 kb/s
Width : 1 920 pixels
Height : 1 080 pixels
Display aspect ratio : 16:9
Frame rate mode : Constant
Frame rate : 29.970 (30000/1001) FPS
Color space : YUV
Chroma subsampling : 4:2:0
Bit depth : 8 bits
Scan type : Progressive
Bits/(Pixel*Frame) : 0.140
Stream size : 707 MiB (98%)
Codec configuration box : av

Stardom Cinderella

Audio
ID : 2
Format : AAC LC
Codec ID : mp4a-40-2
Duration : 11 min 19 s
Bit rate mode : Constant
Bit rate : 192 kb/s
Channel(s) : 2 channels
Channel layout : L R
Sampling rate : 44.1 kHz
Frame rate : 43.066 FPS (1024 SPF)
Compression mode : Lossy
Stream size : 15.8 MiB (2%)
Default : Yes
Alternate group : 1

Complete name : Stardom Cinderella Summer Tour In Sendai (07.24.2021)\04 Tag Team Match.mp4
Format : MPEG-4
Format profile : Base Media
Codec ID : isom
File size : 2.04 GiB
Duration : 27 min 45 s
Overall bit rate mode : Variable
Overall bit rate : 10.5 Mb/s

Stardom Cinderella

Video
ID : 1
Format : AVC
Duration : 27 min 45 s
Bit rate mode : Variable
Bit rate : 10.3 Mb/s
Maximum bit rate : 2 000 kb/s
Width : 1 920 pixels
Height : 1 080 pixels
Display aspect ratio : 16:9
Frame rate mode : Constant
Frame rate : 29.970 (30000/1001) FPS
Color space : YUV
Chroma subsampling : 4:2:0
Bit depth : 8 bits
Scan type : Progressive
Bits/(Pixel*Frame) : 0.166
Stream size : 2.00 GiB (98%)
Codec configuration box : avcC

Stardom Cinderella

Audio
ID : 2
Format : AAC LC
Format/Info : Advanced Audio
Codec ID : mp4a-40-2
Duration : 27 min 45 s
Bit rate mode : Constant
Bit rate : 192 kb/s
Channel(s) : 2 channels
Channel layout : L R
Sampling rate : 44.1 kHz
Frame rate : 43.066 FPS (1024 SPF)
Compression mode : Lossy
Stream size : 38.7 MiB (2%)
Default : Yes
Alternate group : 1

Stardom Cinderella

Singles Match
Konami defeated Lady C.

Singles Match
Maika defeated Saki Kashima.

6 Woman Tag Team Match
Cosmic Angels (Unagi Sayaka, Mina Shirakawa & Tam Nakano) defeated Queen’s Quest (Saya Kamitani, Hina & AZM).

Tag Team Match
Donna del Mondo (Giulia & Syuri) vs. Queen’s Quest (Utami Hayashishita & Momo Watanabe) went to a 20 minute time limit draw.

6 Woman Tag Team Match
STARS (Mayu Iwatani, Koguma & Hanan) defeated Oedo-tai (Starlight Kid, Ruaka & Rina).

Stardom Cinderella

Complete name : Stardom Cinderella Summer Tour In Sendai (07.24.2021).mp4
Format : MPEG-4
Format profile : Base Media
Codec ID : isom
File size : 724 MiB
Duration : 11 min 19 s
Overall bit rate mode : Variable
Overall bit rate : 8 928 kb/s

Video
ID : 1
Format : AVC
Format/Info : Advanced Video
Duration : 11 min 19 s
Bit rate mode : Variable
Bit rate : 8 726 kb/s
Maximum bit rate : 2 000 kb/s
Width : 1 920 pixels
Height : 1 080 pixels
Display aspect ratio : 16:9
Frame rate mode : Constant
Frame rate : 29.970 (30000/1001) FPS
Color space : YUV
Chroma subsampling : 4:2:0
Bit depth : 8 bits
Scan type : Progressive
Bits/(Pixel*Frame) : 0.140
Stream size : 707 MiB (98%)
Codec configuration box : av

Stardom Cinderella

Audio
ID : 2
Format : AAC LC
Codec ID : mp4a-40-2
Duration : 11 min 19 s
Bit rate mode : Constant
Bit rate : 192 kb/s
Channel(s) : 2 channels
Channel layout : L R
Sampling rate : 44.1 kHz
Frame rate : 43.066 FPS (1024 SPF)
Compression mode : Lossy
Stream size : 15.8 MiB (2%)
Default : Yes
Alternate group : 1

Complete name : Stardom Cinderella Summer Tour In Sendai (07.24.2021)\04 Tag Team Match.mp4
Format : MPEG-4
Format profile : Base Media
Codec ID : isom
File size : 2.04 GiB
Duration : 27 min 45 s
Overall bit rate mode : Variable
Overall bit rate : 10.5 Mb/s

Stardom Cinderella

Video
ID : 1
Format : AVC
Duration : 27 min 45 s
Bit rate mode : Variable
Bit rate : 10.3 Mb/s
Maximum bit rate : 2 000 kb/s
Width : 1 920 pixels
Height : 1 080 pixels
Display aspect ratio : 16:9
Frame rate mode : Constant
Frame rate : 29.970 (30000/1001) FPS
Color space : YUV
Chroma subsampling : 4:2:0
Bit depth : 8 bits
Scan type : Progressive
Bits/(Pixel*Frame) : 0.166
Stream size : 2.00 GiB (98%)
Codec configuration box : avcC

Stardom Cinderella

Audio
ID : 2
Format : AAC LC
Format/Info : Advanced Audio
Codec ID : mp4a-40-2
Duration : 27 min 45 s
Bit rate mode : Constant
Bit rate : 192 kb/s
Channel(s) : 2 channels
Channel layout : L R
Sampling rate : 44.1 kHz
Frame rate : 43.066 FPS (1024 SPF)
Compression mode : Lossy
Stream size : 38.7 MiB (2%)
Default : Yes
Alternate group : 1

Stardom Cinderella

Singles Match
Konami defeated Lady C.

Singles Match
Maika defeated Saki Kashima.

6 Woman Tag Team Match
Cosmic Angels (Unagi Sayaka, Mina Shirakawa & Tam Nakano) defeated Queen’s Quest (Saya Kamitani, Hina & AZM).

Tag Team Match
Donna del Mondo (Giulia & Syuri) vs. Queen’s Quest (Utami Hayashishita & Momo Watanabe) went to a 20 minute time limit draw.

6 Woman Tag Team Match
STARS (Mayu Iwatani, Koguma & Hanan) defeated Oedo-tai (Starlight Kid, Ruaka & Rina).

Stardom Cinderella

 

[collapse]

 

 

https://dx-tv.com/

You May Also Like

Leave a Reply

Your email address will not be published. Required fields are marked *

This site uses Akismet to reduce spam. Learn how your comment data is processed.