Stardom All Star Dream Cinderella Online 2021 03 03 DX-TV

Stardom All Star Dream Cinderella Online 2021 03 03 DX-TV

Stardom All Star Dream Cinderella

 Stardom All Star Dream Cinderella

 

 

 

Download Links with High Speed


Dopapk

 

 

 

 

Nitroflare

 

 

 

 

Rapidgator

 

 

 

 

Uploaded

 

 

 

 

Watch online

 

Server 1

 

 

 

 

watch now

 

 

 

 

Server-2

 

 

 

 

watch now

 

 

 

|Server-3

 

 

 

 

Stardom All Star Dream

 

 

Uploaded By Site DX-TV.com

 

 

Show Info This Show

 

 

Complete name : 2021.03.03.Stardom.All.Star.Dream.Cinderella.(Samurai.TV).mp4
Format : MPEG-4
Format profile : Base Media
Codec ID : isom
File size : 4.93 GiB
Duration : 3 h 43 min
Overall bit rate : 3 151 kb/s

Stardom All Star Dream

Video
ID : 1
Format : AVC
Duration : 3 h 43 min
Bit rate : 2 943 kb/s
Width : 1 280 pixels
Height : 720 pixels
Display aspect ratio : 16:9
Frame rate mode : Constant
Frame rate : 60.000 FPS
Color space : YUV
Chroma subsampling : 4:2:0
Bit depth : 8 bits
Scan type : Progressive
Bits/(Pixel*Frame) : 0.053
Stream size : 4.60 GiB (93%)
Color primaries : BT.709
Transfer characteristics : BT.709
Matrix coefficients : BT.709
Codec configuration box : avcC

Audio
ID : 2
Format : AAC LC
Codec ID : mp4a-40-2
Duration : 3 h 43 min
Bit rate mode : Constant
Bit rate : 192 kb/s
Channel(s) : 2 channels
Channel layout : L R
Sampling rate : 48.0 kHz
Frame rate : 46.875 FPS
Compression mode : Lossy
Stream size : 308 MiB
Default : Yes
Alternate group : 1

Stardom All Star Dream

Complete name : Stardom.10th.Anniversary.Show.2021.03.03.DX-TV.mp4
Format : MPEG-4
Format profile : Base Media
File size : 1.78 GiB
Duration : 3 h 44 min
Overall bit rate : 1 136 kb/s

Video
ID : 1
Format : AVC
Duration : 3 h 44 min
Bit rate : 1 003 kb/s
Width : 850 pixels
Height : 480 pixels
Display aspect ratio : 16:9
Original display aspect rat : 16:9
Frame rate mode : Variable
Frame rate : 25.000 FPS
Minimum frame rate : 8.333 FPS
Maximum frame rate : 25.000 FPS
Color space : YUV
Chroma subsampling : 4:2:0
Bit depth : 8 bits
Scan type : Progressive
Bits/(Pixel*Frame) : 0.098
Stream size : 1.57 GiB
Color primaries : BT.709
Transfer characteristics : BT.709
Matrix coefficients : BT.709
Codec configuration box : avc

Stardom All Star Dream

Audio
ID : 2
Format : AAC LC
Codec ID : mp4a-40-2
Duration : 3 h 44 min
Bit rate mode : Constant
Bit rate : 128 kb/s
Channel(s) : 2 channels
Channel layout : L R
Sampling rate : 44.1 kHz
Frame rate : 43.066 FPS
Compression mode : Lossy
Stream size : 205 MiB
Default : Yes
Alternate group : 1

 

 

[collapse]

 

 

https://dx-tv.com/