Stardom 5 Star Grand Prix 2021 Day 4 1080p Online Free

Stardom 5 Star Grand Prix 2021 08 08 Day 4 1080p Online Free Replay DX-TV

Stardom 5 Star Grand Prix 2021

 Stardom 5 Star Grand Prix 2021

 

 

 

Download Links with premium High Speed


 

Dopapk

 

 

Show Links

 

http://shrt10.com/qPgo95

 

[collapse]

 

 

Nitroflare

 

 

Show Links

 

http://shrt10.com/FjGuex0

 

[collapse]

 

 

Rapidgator

 

 

Show Links

 

http://shrt10.com/LMKGiV

 

[collapse]

 

 

Uploaded

 

 

Show Links

 

http://shrt10.com/MxPwaOPYj

 

[collapse]

 

 

Watch online

 

Server 1

 

 

 

 

Stardom 5 Star Grand Prix 2021

 

 

 

 

Server-2

 

 

 

 

watch now

 

 

 

|Server-3

 

 

 

 

watch now

 

 

Uploaded By Site DX-TV.com

 

 

Show Info This Show

 

Stardom 5 Star Grand Prix 2021

Complete name : 2021.08.08 Stardom 5 Star Grand Prix Day 4.mp4
Format : MPEG-4
Format profile : Base Media
Codec ID : isom
File size : 2.96 GiB
Duration : 1 h 54 min
Overall bit rate mode : Variable
Overall bit rate : 3 699 kb/s

Video
ID : 1
Format : AVC
Format/Info : Advanced Video
Duration : 1 h 54 min
Bit rate : 3 502 kb/s
Width : 1 920 pixels
Height : 1 080 pixels
Display aspect ratio : 16:9
Frame rate mode : Constant
Frame rate : 29.970 (30000/1001) FPS
Color space : YUV
Chroma subsampling : 4:2:0
Bit depth : 8 bits
Scan type : Progressive
Bits/(Pixel*Frame) : 0.056
Stream size : 2.81 GiB (95%)
Codec configuration box : avc

Stardom 5 Star Grand Prix 2021

Audio
ID : 2
Format : AAC LC
Format/Info : Advanced Audio
Codec ID : mp4a-40-2
Duration : 1 h 54 min
Bit rate mode : Variable
Bit rate : 192 kb/s
Maximum bit rate : 204 kb/s
Channel(s) : 2 channels
Channel layout : L R
Sampling rate : 48.0 kHz
Frame rate : 46.875 FPS (1024 SPF)
Compression mode : Lossy
Stream size : 158 MiB (5%)
Default : Yes
Alternate group : 1

Stardom 5 Star Grand Prix 2021

STARDOM “5 STAR Grand Prix 2021” (Day 4) results from Osaka, Japan ???????? at Edion Arena #2 on 8/8/21:
Unagi Sayaka won a 3-Way Match over AZM and Lady C with the fall on Lady C in 6:42.

Mayu Iwatani, Koguma, and Hanan beat Utami Hayashishita, Momo Watanabe, and Hina when Hana pinned Hina after a Blockbuster in 10:31.

Giulia and Syuri beat Konami and Rina when Syuri submitted Rina with a sharpshooter in 9:52. Giulia and Syuri will defend the Goddesses of STARDOM Tag Team Titles against Konami and Ruaka on 8/14/21 in Niigata.

Stardom 5 Star Grand Prix 2021

Maika pinned Ruaka with a Michinoku Driver in a Blue Block Match in 4:44 for 2 points.

Mina Shirakawa pinned Saki Kashima in a Red Block Match in 10:12 for 2 points. Shirakawa got the win but Kashima did damage to her arm which could be part of a story for Shirakawa as the Tournament goes on over the next several weeks.

NatsuPoi vs. Starlight Kid in a Red Block Match ended in a draw when both were knocked out of the ring in 9:43. Because of the draw ruling, both earn a point each. From what our correspondent Tomi Yamada tells us, Kid cut a promo at NatsuPoi in the ring afterwards and challenged her for the High Speed Title.

Saya Kamitani pinned Tam Nakano with a Frankensteiner in a Blue Block Match in 13:18 for 2 points. Nakano is still selling the arm injury from Konami’s attack on 8/1/21.

Stardom 5 Star Grand Prix 2021

Complete name : 2021.08.08 Stardom 5 Star Grand Prix Day 4.mp4
Format : MPEG-4
Format profile : Base Media
Codec ID : isom
File size : 2.96 GiB
Duration : 1 h 54 min
Overall bit rate mode : Variable
Overall bit rate : 3 699 kb/s

Video
ID : 1
Format : AVC
Format/Info : Advanced Video
Duration : 1 h 54 min
Bit rate : 3 502 kb/s
Width : 1 920 pixels
Height : 1 080 pixels
Display aspect ratio : 16:9
Frame rate mode : Constant
Frame rate : 29.970 (30000/1001) FPS
Color space : YUV
Chroma subsampling : 4:2:0
Bit depth : 8 bits
Scan type : Progressive
Bits/(Pixel*Frame) : 0.056
Stream size : 2.81 GiB (95%)
Codec configuration box : avc

Stardom 5 Star Grand Prix 2021

Audio
ID : 2
Format : AAC LC
Format/Info : Advanced Audio
Codec ID : mp4a-40-2
Duration : 1 h 54 min
Bit rate mode : Variable
Bit rate : 192 kb/s
Maximum bit rate : 204 kb/s
Channel(s) : 2 channels
Channel layout : L R
Sampling rate : 48.0 kHz
Frame rate : 46.875 FPS (1024 SPF)
Compression mode : Lossy
Stream size : 158 MiB (5%)
Default : Yes
Alternate group : 1

Stardom 5 Star Grand Prix 2021

STARDOM “5 STAR Grand Prix 2021” (Day 4) results from Osaka, Japan ???????? at Edion Arena #2 on 8/8/21:
Unagi Sayaka won a 3-Way Match over AZM and Lady C with the fall on Lady C in 6:42.

Mayu Iwatani, Koguma, and Hanan beat Utami Hayashishita, Momo Watanabe, and Hina when Hana pinned Hina after a Blockbuster in 10:31.

Giulia and Syuri beat Konami and Rina when Syuri submitted Rina with a sharpshooter in 9:52. Giulia and Syuri will defend the Goddesses of STARDOM Tag Team Titles against Konami and Ruaka on 8/14/21 in Niigata.

Stardom 5 Star Grand Prix 2021

Maika pinned Ruaka with a Michinoku Driver in a Blue Block Match in 4:44 for 2 points.

Mina Shirakawa pinned Saki Kashima in a Red Block Match in 10:12 for 2 points. Shirakawa got the win but Kashima did damage to her arm which could be part of a story for Shirakawa as the Tournament goes on over the next several weeks.

NatsuPoi vs. Starlight Kid in a Red Block Match ended in a draw when both were knocked out of the ring in 9:43. Because of the draw ruling, both earn a point each. From what our correspondent Tomi Yamada tells us, Kid cut a promo at NatsuPoi in the ring afterwards and challenged her for the High Speed Title.

Saya Kamitani pinned Tam Nakano with a Frankensteiner in a Blue Block Match in 13:18 for 2 points. Nakano is still selling the arm injury from Konami’s attack on 8/1/21.

Stardom 5 Star Grand Prix 2021

Complete name : 2021.08.08 Stardom 5 Star Grand Prix Day 4.mp4
Format : MPEG-4
Format profile : Base Media
Codec ID : isom
File size : 2.96 GiB
Duration : 1 h 54 min
Overall bit rate mode : Variable
Overall bit rate : 3 699 kb/s

Video
ID : 1
Format : AVC
Format/Info : Advanced Video
Duration : 1 h 54 min
Bit rate : 3 502 kb/s
Width : 1 920 pixels
Height : 1 080 pixels
Display aspect ratio : 16:9
Frame rate mode : Constant
Frame rate : 29.970 (30000/1001) FPS
Color space : YUV
Chroma subsampling : 4:2:0
Bit depth : 8 bits
Scan type : Progressive
Bits/(Pixel*Frame) : 0.056
Stream size : 2.81 GiB (95%)
Codec configuration box : avc

Stardom 5 Star Grand Prix 2021

Audio
ID : 2
Format : AAC LC
Format/Info : Advanced Audio
Codec ID : mp4a-40-2
Duration : 1 h 54 min
Bit rate mode : Variable
Bit rate : 192 kb/s
Maximum bit rate : 204 kb/s
Channel(s) : 2 channels
Channel layout : L R
Sampling rate : 48.0 kHz
Frame rate : 46.875 FPS (1024 SPF)
Compression mode : Lossy
Stream size : 158 MiB (5%)
Default : Yes
Alternate group : 1

Stardom 5 Star Grand Prix 2021

STARDOM “5 STAR Grand Prix 2021” (Day 4) results from Osaka, Japan ???????? at Edion Arena #2 on 8/8/21:
Unagi Sayaka won a 3-Way Match over AZM and Lady C with the fall on Lady C in 6:42.

Mayu Iwatani, Koguma, and Hanan beat Utami Hayashishita, Momo Watanabe, and Hina when Hana pinned Hina after a Blockbuster in 10:31.

Giulia and Syuri beat Konami and Rina when Syuri submitted Rina with a sharpshooter in 9:52. Giulia and Syuri will defend the Goddesses of STARDOM Tag Team Titles against Konami and Ruaka on 8/14/21 in Niigata.

Stardom 5 Star Grand Prix 2021

Maika pinned Ruaka with a Michinoku Driver in a Blue Block Match in 4:44 for 2 points.

Mina Shirakawa pinned Saki Kashima in a Red Block Match in 10:12 for 2 points. Shirakawa got the win but Kashima did damage to her arm which could be part of a story for Shirakawa as the Tournament goes on over the next several weeks.

NatsuPoi vs. Starlight Kid in a Red Block Match ended in a draw when both were knocked out of the ring in 9:43. Because of the draw ruling, both earn a point each. From what our correspondent Tomi Yamada tells us, Kid cut a promo at NatsuPoi in the ring afterwards and challenged her for the High Speed Title.

Saya Kamitani pinned Tam Nakano with a Frankensteiner in a Blue Block Match in 13:18 for 2 points. Nakano is still selling the arm injury from Konami’s attack on 8/1/21.

Stardom 5 Star Grand Prix 2021

Complete name : 2021.08.08 Stardom 5 Star Grand Prix Day 4.mp4
Format : MPEG-4
Format profile : Base Media
Codec ID : isom
File size : 2.96 GiB
Duration : 1 h 54 min
Overall bit rate mode : Variable
Overall bit rate : 3 699 kb/s

Video
ID : 1
Format : AVC
Format/Info : Advanced Video
Duration : 1 h 54 min
Bit rate : 3 502 kb/s
Width : 1 920 pixels
Height : 1 080 pixels
Display aspect ratio : 16:9
Frame rate mode : Constant
Frame rate : 29.970 (30000/1001) FPS
Color space : YUV
Chroma subsampling : 4:2:0
Bit depth : 8 bits
Scan type : Progressive
Bits/(Pixel*Frame) : 0.056
Stream size : 2.81 GiB (95%)
Codec configuration box : avc

Stardom 5 Star Grand Prix 2021

Audio
ID : 2
Format : AAC LC
Format/Info : Advanced Audio
Codec ID : mp4a-40-2
Duration : 1 h 54 min
Bit rate mode : Variable
Bit rate : 192 kb/s
Maximum bit rate : 204 kb/s
Channel(s) : 2 channels
Channel layout : L R
Sampling rate : 48.0 kHz
Frame rate : 46.875 FPS (1024 SPF)
Compression mode : Lossy
Stream size : 158 MiB (5%)
Default : Yes
Alternate group : 1

Stardom 5 Star Grand Prix 2021

STARDOM “5 STAR Grand Prix 2021” (Day 4) results from Osaka, Japan ???????? at Edion Arena #2 on 8/8/21:
Unagi Sayaka won a 3-Way Match over AZM and Lady C with the fall on Lady C in 6:42.

Mayu Iwatani, Koguma, and Hanan beat Utami Hayashishita, Momo Watanabe, and Hina when Hana pinned Hina after a Blockbuster in 10:31.

Giulia and Syuri beat Konami and Rina when Syuri submitted Rina with a sharpshooter in 9:52. Giulia and Syuri will defend the Goddesses of STARDOM Tag Team Titles against Konami and Ruaka on 8/14/21 in Niigata.

Stardom 5 Star Grand Prix 2021

Maika pinned Ruaka with a Michinoku Driver in a Blue Block Match in 4:44 for 2 points.

Mina Shirakawa pinned Saki Kashima in a Red Block Match in 10:12 for 2 points. Shirakawa got the win but Kashima did damage to her arm which could be part of a story for Shirakawa as the Tournament goes on over the next several weeks.

NatsuPoi vs. Starlight Kid in a Red Block Match ended in a draw when both were knocked out of the ring in 9:43. Because of the draw ruling, both earn a point each. From what our correspondent Tomi Yamada tells us, Kid cut a promo at NatsuPoi in the ring afterwards and challenged her for the High Speed Title.

Saya Kamitani pinned Tam Nakano with a Frankensteiner in a Blue Block Match in 13:18 for 2 points. Nakano is still selling the arm injury from Konami’s attack on 8/1/21.

Stardom 5 Star Grand Prix 2021

Complete name : 2021.08.08 Stardom 5 Star Grand Prix Day 4.mp4
Format : MPEG-4
Format profile : Base Media
Codec ID : isom
File size : 2.96 GiB
Duration : 1 h 54 min
Overall bit rate mode : Variable
Overall bit rate : 3 699 kb/s

Video
ID : 1
Format : AVC
Format/Info : Advanced Video
Duration : 1 h 54 min
Bit rate : 3 502 kb/s
Width : 1 920 pixels
Height : 1 080 pixels
Display aspect ratio : 16:9
Frame rate mode : Constant
Frame rate : 29.970 (30000/1001) FPS
Color space : YUV
Chroma subsampling : 4:2:0
Bit depth : 8 bits
Scan type : Progressive
Bits/(Pixel*Frame) : 0.056
Stream size : 2.81 GiB (95%)
Codec configuration box : avc

Stardom 5 Star Grand Prix 2021

Audio
ID : 2
Format : AAC LC
Format/Info : Advanced Audio
Codec ID : mp4a-40-2
Duration : 1 h 54 min
Bit rate mode : Variable
Bit rate : 192 kb/s
Maximum bit rate : 204 kb/s
Channel(s) : 2 channels
Channel layout : L R
Sampling rate : 48.0 kHz
Frame rate : 46.875 FPS (1024 SPF)
Compression mode : Lossy
Stream size : 158 MiB (5%)
Default : Yes
Alternate group : 1

Stardom 5 Star Grand Prix 2021

STARDOM “5 STAR Grand Prix 2021” (Day 4) results from Osaka, Japan ???????? at Edion Arena #2 on 8/8/21:
Unagi Sayaka won a 3-Way Match over AZM and Lady C with the fall on Lady C in 6:42.

Mayu Iwatani, Koguma, and Hanan beat Utami Hayashishita, Momo Watanabe, and Hina when Hana pinned Hina after a Blockbuster in 10:31.

Giulia and Syuri beat Konami and Rina when Syuri submitted Rina with a sharpshooter in 9:52. Giulia and Syuri will defend the Goddesses of STARDOM Tag Team Titles against Konami and Ruaka on 8/14/21 in Niigata.

Stardom 5 Star Grand Prix 2021

Maika pinned Ruaka with a Michinoku Driver in a Blue Block Match in 4:44 for 2 points.

Mina Shirakawa pinned Saki Kashima in a Red Block Match in 10:12 for 2 points. Shirakawa got the win but Kashima did damage to her arm which could be part of a story for Shirakawa as the Tournament goes on over the next several weeks.

NatsuPoi vs. Starlight Kid in a Red Block Match ended in a draw when both were knocked out of the ring in 9:43. Because of the draw ruling, both earn a point each. From what our correspondent Tomi Yamada tells us, Kid cut a promo at NatsuPoi in the ring afterwards and challenged her for the High Speed Title.

Saya Kamitani pinned Tam Nakano with a Frankensteiner in a Blue Block Match in 13:18 for 2 points. Nakano is still selling the arm injury from Konami’s attack on 8/1/21.

Stardom 5 Star Grand Prix 2021

Complete name : 2021.08.08 Stardom 5 Star Grand Prix Day 4.mp4
Format : MPEG-4
Format profile : Base Media
Codec ID : isom
File size : 2.96 GiB
Duration : 1 h 54 min
Overall bit rate mode : Variable
Overall bit rate : 3 699 kb/s

Video
ID : 1
Format : AVC
Format/Info : Advanced Video
Duration : 1 h 54 min
Bit rate : 3 502 kb/s
Width : 1 920 pixels
Height : 1 080 pixels
Display aspect ratio : 16:9
Frame rate mode : Constant
Frame rate : 29.970 (30000/1001) FPS
Color space : YUV
Chroma subsampling : 4:2:0
Bit depth : 8 bits
Scan type : Progressive
Bits/(Pixel*Frame) : 0.056
Stream size : 2.81 GiB (95%)
Codec configuration box : avc

Stardom 5 Star Grand Prix 2021

Audio
ID : 2
Format : AAC LC
Format/Info : Advanced Audio
Codec ID : mp4a-40-2
Duration : 1 h 54 min
Bit rate mode : Variable
Bit rate : 192 kb/s
Maximum bit rate : 204 kb/s
Channel(s) : 2 channels
Channel layout : L R
Sampling rate : 48.0 kHz
Frame rate : 46.875 FPS (1024 SPF)
Compression mode : Lossy
Stream size : 158 MiB (5%)
Default : Yes
Alternate group : 1

Stardom 5 Star Grand Prix 2021

STARDOM “5 STAR Grand Prix 2021” (Day 4) results from Osaka, Japan ???????? at Edion Arena #2 on 8/8/21:
Unagi Sayaka won a 3-Way Match over AZM and Lady C with the fall on Lady C in 6:42.

Mayu Iwatani, Koguma, and Hanan beat Utami Hayashishita, Momo Watanabe, and Hina when Hana pinned Hina after a Blockbuster in 10:31.

Giulia and Syuri beat Konami and Rina when Syuri submitted Rina with a sharpshooter in 9:52. Giulia and Syuri will defend the Goddesses of STARDOM Tag Team Titles against Konami and Ruaka on 8/14/21 in Niigata.

Stardom 5 Star Grand Prix 2021

Maika pinned Ruaka with a Michinoku Driver in a Blue Block Match in 4:44 for 2 points.

Mina Shirakawa pinned Saki Kashima in a Red Block Match in 10:12 for 2 points. Shirakawa got the win but Kashima did damage to her arm which could be part of a story for Shirakawa as the Tournament goes on over the next several weeks.

NatsuPoi vs. Starlight Kid in a Red Block Match ended in a draw when both were knocked out of the ring in 9:43. Because of the draw ruling, both earn a point each. From what our correspondent Tomi Yamada tells us, Kid cut a promo at NatsuPoi in the ring afterwards and challenged her for the High Speed Title.

Saya Kamitani pinned Tam Nakano with a Frankensteiner in a Blue Block Match in 13:18 for 2 points. Nakano is still selling the arm injury from Konami’s attack on 8/1/21.

Stardom 5 Star Grand Prix 2021

Complete name : 2021.08.08 Stardom 5 Star Grand Prix Day 4.mp4
Format : MPEG-4
Format profile : Base Media
Codec ID : isom
File size : 2.96 GiB
Duration : 1 h 54 min
Overall bit rate mode : Variable
Overall bit rate : 3 699 kb/s

Video
ID : 1
Format : AVC
Format/Info : Advanced Video
Duration : 1 h 54 min
Bit rate : 3 502 kb/s
Width : 1 920 pixels
Height : 1 080 pixels
Display aspect ratio : 16:9
Frame rate mode : Constant
Frame rate : 29.970 (30000/1001) FPS
Color space : YUV
Chroma subsampling : 4:2:0
Bit depth : 8 bits
Scan type : Progressive
Bits/(Pixel*Frame) : 0.056
Stream size : 2.81 GiB (95%)
Codec configuration box : avc

Stardom 5 Star Grand Prix 2021

Audio
ID : 2
Format : AAC LC
Format/Info : Advanced Audio
Codec ID : mp4a-40-2
Duration : 1 h 54 min
Bit rate mode : Variable
Bit rate : 192 kb/s
Maximum bit rate : 204 kb/s
Channel(s) : 2 channels
Channel layout : L R
Sampling rate : 48.0 kHz
Frame rate : 46.875 FPS (1024 SPF)
Compression mode : Lossy
Stream size : 158 MiB (5%)
Default : Yes
Alternate group : 1

Stardom 5 Star Grand Prix 2021

STARDOM “5 STAR Grand Prix 2021” (Day 4) results from Osaka, Japan ???????? at Edion Arena #2 on 8/8/21:
Unagi Sayaka won a 3-Way Match over AZM and Lady C with the fall on Lady C in 6:42.

Mayu Iwatani, Koguma, and Hanan beat Utami Hayashishita, Momo Watanabe, and Hina when Hana pinned Hina after a Blockbuster in 10:31.

Giulia and Syuri beat Konami and Rina when Syuri submitted Rina with a sharpshooter in 9:52. Giulia and Syuri will defend the Goddesses of STARDOM Tag Team Titles against Konami and Ruaka on 8/14/21 in Niigata.

Stardom 5 Star Grand Prix 2021

Maika pinned Ruaka with a Michinoku Driver in a Blue Block Match in 4:44 for 2 points.

Mina Shirakawa pinned Saki Kashima in a Red Block Match in 10:12 for 2 points. Shirakawa got the win but Kashima did damage to her arm which could be part of a story for Shirakawa as the Tournament goes on over the next several weeks.

NatsuPoi vs. Starlight Kid in a Red Block Match ended in a draw when both were knocked out of the ring in 9:43. Because of the draw ruling, both earn a point each. From what our correspondent Tomi Yamada tells us, Kid cut a promo at NatsuPoi in the ring afterwards and challenged her for the High Speed Title.

Saya Kamitani pinned Tam Nakano with a Frankensteiner in a Blue Block Match in 13:18 for 2 points. Nakano is still selling the arm injury from Konami’s attack on 8/1/21.

Stardom 5 Star Grand Prix 2021

Complete name : 2021.08.08 Stardom 5 Star Grand Prix Day 4.mp4
Format : MPEG-4
Format profile : Base Media
Codec ID : isom
File size : 2.96 GiB
Duration : 1 h 54 min
Overall bit rate mode : Variable
Overall bit rate : 3 699 kb/s

Video
ID : 1
Format : AVC
Format/Info : Advanced Video
Duration : 1 h 54 min
Bit rate : 3 502 kb/s
Width : 1 920 pixels
Height : 1 080 pixels
Display aspect ratio : 16:9
Frame rate mode : Constant
Frame rate : 29.970 (30000/1001) FPS
Color space : YUV
Chroma subsampling : 4:2:0
Bit depth : 8 bits
Scan type : Progressive
Bits/(Pixel*Frame) : 0.056
Stream size : 2.81 GiB (95%)
Codec configuration box : avc

Stardom 5 Star Grand Prix 2021

Audio
ID : 2
Format : AAC LC
Format/Info : Advanced Audio
Codec ID : mp4a-40-2
Duration : 1 h 54 min
Bit rate mode : Variable
Bit rate : 192 kb/s
Maximum bit rate : 204 kb/s
Channel(s) : 2 channels
Channel layout : L R
Sampling rate : 48.0 kHz
Frame rate : 46.875 FPS (1024 SPF)
Compression mode : Lossy
Stream size : 158 MiB (5%)
Default : Yes
Alternate group : 1

Stardom 5 Star Grand Prix 2021

STARDOM “5 STAR Grand Prix 2021” (Day 4) results from Osaka, Japan ???????? at Edion Arena #2 on 8/8/21:
Unagi Sayaka won a 3-Way Match over AZM and Lady C with the fall on Lady C in 6:42.

Mayu Iwatani, Koguma, and Hanan beat Utami Hayashishita, Momo Watanabe, and Hina when Hana pinned Hina after a Blockbuster in 10:31.

Giulia and Syuri beat Konami and Rina when Syuri submitted Rina with a sharpshooter in 9:52. Giulia and Syuri will defend the Goddesses of STARDOM Tag Team Titles against Konami and Ruaka on 8/14/21 in Niigata.

Stardom 5 Star Grand Prix 2021

Maika pinned Ruaka with a Michinoku Driver in a Blue Block Match in 4:44 for 2 points.

Mina Shirakawa pinned Saki Kashima in a Red Block Match in 10:12 for 2 points. Shirakawa got the win but Kashima did damage to her arm which could be part of a story for Shirakawa as the Tournament goes on over the next several weeks.

Stardom 5 Star Grand Prix 2021

NatsuPoi vs. Starlight Kid in a Red Block Match ended in a draw when both were knocked out of the ring in 9:43. Because of the draw ruling, both earn a point each. From what our correspondent Tomi Yamada tells us, Kid cut a promo at NatsuPoi in the ring afterwards and challenged her for the High Speed Title.

Saya Kamitani pinned Tam Nakano with a Frankensteiner in a Blue Block Match in 13:18 for 2 points. Nakano is still selling the arm injury from Konami’s attack on 8/1/21.

Stardom 5 Star Grand Prix 2021

 

[collapse]

 

 

https://dx-tv.com/

You May Also Like

Leave a Reply

Your email address will not be published. Required fields are marked *

This site uses Akismet to reduce spam. Learn how your comment data is processed.