Stardom 2021 01 24 New Year Stars 2021 Day 6 DX-TV

Stardom 2021 01 24 New Year Stars 1080p Day 6 DX-TV

Stardom 2021 01 24

 Stardom 2021

 

Download Links with premium High Speed   

 

 

dropapk.to

hhttp://shrt10.com/nY4g1leUz

 

 

nitroflare.com

http://shrt10.com/XZaWkbiO

 

 

rapidgator.net

hhttp://shrt10.com/IlpEMu

 

 

uploaded.net

http://shrt10.com/Jtt2dyFm

 

 

 

Watch online

 

Server 1

 

 

 

 

Stardom 2021

 

 

 

 

Server-2

 

 

 

 

watch now

 

 

Uploaded By Site DX-TV.com

 

 

Complete name : Stardom.2021.01.24.New.Year.Stars.2021.Day.6.Night.1080p.WEB.h264-NCMP.mp4
Format : MPEG-4
Format profile : Base Media
Codec ID : isom
File size : 2.57 GiB
Duration : 1 h 43 min
Overall bit rate : 3 573 kb/s
Writing application : Lavf57.72.101

Stardom 2021

Video
ID : 1
Format : AVC
Format/Info : Advanced Video
Duration : 1 h 43 min
Bit rate : 3 501 kb/s
Width : 1 920 pixels
Height : 1 080 pixels
Display aspect ratio : 16:9
Frame rate mode : Constant
Frame rate : 29.970 (30000/1001) FPS
Color space : YUV
Chroma subsampling : 4:2:0
Bit depth : 8 bits
Scan type : Progressive
Bits/(Pixel*Frame) : 0.056
Stream size : 2.52 GiB (98%)
Codec configuration box : avc

Stardom 2021

Audio
ID : 2
Format : AAC LC
Format/Info : Advanced Audio Codec Low Complexity
Codec ID : mp4a-40-2
Duration : 1 h 43 min
Bit rate mode : Constant
Bit rate : 64.0 kb/s
Channel(s) : 2 channels
Channel layout : L R
Sampling rate : 48.0 kHz
Frame rate : 46.875 FPS (1024 SPF)
Compression mode : Lossy
Stream size : 47.2 MiB (2%)
Default : Yes
Alternate group : 1

Audio
ID : 2
Format : AAC LC
Format/Info : Advanced Audio Codec Low Complexity
Codec ID : mp4a-40-2
Duration : 1 h 43 min
Bit rate mode : Constant
Bit rate : 64.0 kb/s
Channel(s) : 2 channels
Channel layout : L R
Sampling rate : 48.0 kHz
Frame rate : 46.875 FPS (1024 SPF)
Compression mode : Lossy
Stream size : 47.2 MiB (2%)
Default : Yes
Alternate group : 1

Stardom 2021

Audio
ID : 2
Format : AAC LC
Format/Info : Advanced Audio Codec Low Complexity
Codec ID : mp4a-40-2
Duration : 1 h 43 min
Bit rate mode : Constant
Bit rate : 64.0 kb/s
Channel(s) : 2 channels
Channel layout : L R
Sampling rate : 48.0 kHz
Frame rate : 46.875 FPS (1024 SPF)
Compression mode : Lossy
Stream size : 47.2 MiB (2%)
Default : Yes
Alternate group : 1

Stardom 2021

 

https://dx-tv.com/

You May Also Like

Leave a Reply

Your email address will not be published. Required fields are marked *

This site uses Akismet to reduce spam. Learn how your comment data is processed.